squallzhao
武林盟主

[2016] [欧美] [惊悚] [BD-1080P] 国王口信/金恩的訊息 Message.from.the.King.2016.1080p.BluRay.x264-PSYCHD 7.64GB

-->

帖子完整标题:国王口信/金恩的訊息 Message.from.the.King.2016.1080p.BluRay.x264-PSYCHD 7.64GB



◎译  名 国王口信/金恩的訊息(台)
◎片  名 Message from the King
◎年  代 2016
◎产  地 美国
◎类  别 惊悚
◎语  言 英语
◎上映日期 2016-09-08(多伦多电影节) / 2017-08-04(美国)
◎IMDb评分 6.4/10 from 12253 users
◎IMDb链接 https://www.imdb.com/title/tt1712192/
◎豆瓣评分 6.2/10 from 638 users
◎豆瓣链接 https://movie.douban.com/subject/26247133/
◎片  长 103分钟
◎导  演 法布里斯·度·沃尔斯 Fabrice Du Welz
◎编  剧 Oliver Butcher / Stephen Cornwell
◎主  演 卢克·伊万斯 Luke Evans
      泰莉莎·帕尔墨 Teresa Palmer
      娜塔丽·马丁内斯 Natalie Martinez
      汤姆·费尔顿 Tom Felton
      查德维克·博斯曼 Chadwick Boseman
      阿尔弗雷德·莫里纳 Alfred Molina
      苏菲·迪伊 Sophie Dee
      戴尔·迪奇 Dale Dickey
      克里斯·马尔基 Chris Mulkey
      迈克尔·帕特里克·麦克吉尔 Michael Patrick McGill
      德鲁·鲍威尔 Drew Powell
      汤姆·怀特 Tom Wright
      杰克·威利 Jake Weary
      乔·徐 Joe Seo

◎标  签 犯罪 | 动作 | 复仇 | 美国 | 2016 | 美国电影 | 惊悚 | 链条

◎简  介

  来自南非的雅各比·金(查德维克·博斯曼饰演)是一个神秘人物,接到在洛杉矶的妹妹的不好消息,赶往美国追查妹妹的行踪,却意外在停尸房发现了妹妹的尸体,这之中究竟又隐藏着那些不为人知的秘密呢?

Video
ID : 1
Format : AVC
Format/Info : Advanced Video Codec
Format profile : [email protected]
Format settings : CABAC / 5 Ref Frames
Format settings, CABAC : Yes
Format settings, Reference frames : 5 frames
Codec ID : V_MPEG4/ISO/AVC
Duration : 1 h 42 min
Bit rate : 9 160 kb/s
Width : 1 920 pixels
Height : 808 pixels
Display aspect ratio : 2.40:1
Frame rate mode : Constant
Frame rate : 24.000 FPS
Color space : YUV
Chroma subsampling : 4:2:0
Bit depth : 8 bits
Scan type : Progressive
Bits/(Pixel*Frame) : 0.246
Stream size : 6.41 GiB (84%)
Writing library : x264 core 152 r2851 ba24899
Encoding settings : cabac=1 / ref=5 / deblock=1:-3:-3 / analyse=0x3:0x113 / me=umh / subme=8 / psy=1 / psy_rd=1.00:0.00 / mixed_ref=1 / me_range=16 / chroma_me=1 / trellis=1 / 8x8dct=1 / cqm=0 / deadzone=21,11 / fast_pskip=1 / chroma_qp_offset=-2 / threads=18 / lookahead_threads=3 / sliced_threads=0 / nr=0 / decimate=1 / interlaced=0 / bluray_compat=0 / constrained_intra=0 / bframes=3 / b_pyramid=2 / b_adapt=2 / b_bias=0 / direct=3 / weightb=1 / open_gop=0 / weightp=2 / keyint=240 / keyint_min=24 / scenecut=40 / intra_refresh=0 / rc_lookahead=50 / rc=2pass / mbtree=1 / bitrate=9160 / ratetol=1.0 / qcomp=0.60 / qpmin=0 / qpmax=69 / qpstep=4 / cplxblur=20.0 / qblur=0.5 / ip_ratio=1.40 / aq=3:0.80
Default : Yes
Forced : No
Statistics Tags Issue : no_variable_data 1970-01-01 00:00:00 / no_variable_data 2010-02-22 21:41:29
FromStats_BitRate : 9157511
FromStats_Duration : 01:42:34.042000000
FromStats_FrameCount : 147697
FromStats_StreamSize : 7044463646

Audio
ID : 2
Format : DTS
Format/Info : Digital Theater Systems
Codec ID : A_DTS
Duration : 1 h 42 min
Bit rate mode : Constant
Bit rate : 1 509 kb/s
Channel(s) : 6 channels
Channel layout : C L R Ls Rs LFE
Sampling rate : 48.0 kHz
Frame rate : 93.750 FPS (512 SPF)
Bit depth : 24 bits
Compression mode : Lossy
Stream size : 1.08 GiB (14%)
Language : English
Default : Yes
Forced : No
Statistics Tags Issue : no_variable_data 1970-01-01 00:00:00 / no_variable_data 2010-02-22 21:41:29
FromStats_BitRate : 1509000
FromStats_Duration : 01:42:34.048000000
FromStats_FrameCount : 576942
FromStats_StreamSize : 1160807304

Menu
00:00:00.000 : en:00:00:00.000
00:05:55.125 : en:00:05:55.125
00:17:58.083 : en:00:17:58.083
00:28:33.958 : en:00:28:33.958
00:35:39.583 : en:00:35:39.583
00:44:42.292 : en:00:44:42.292
00:55:25.042 : en:00:55:25.042
01:03:00.417 : en:01:03:00.417
01:10:53.167 : en:01:10:53.167
01:16:09.375 : en:01:16:09.375
01:27:44.708 : en:01:27:44.708
01:34:35.375 : en:01:34:35.375





1 个附件 售价 大小 下载 时间

Message.from.the.King.2016.1080p.BluRay.x264-PSYCHD.zip 0 金币 77.95K 140 次 7天前

#1楼
发帖时间:2020-09-17 10:16:20   |   回复数:0
游客组