squallzhao
武林盟主

[更 早] [欧美] [动作] [BD-1080P] 决胜时空战区/宇宙的巨人希曼 Masters.of.the.Universe.1987.1080p.BluRay.x264-PSYCHD 7.65GB

-->

帖子完整标题:决胜时空战区/宇宙的巨人希曼 Masters.of.the.Universe.1987.1080p.BluRay.x264-PSYCHD 7.65GB



◎译  名 决胜时空战区/宇宙的巨人希曼
◎片  名 Masters of the Universe
◎年  代 1987
◎产  地 美国
◎类  别 动作 / 科幻 / 惊悚 / 奇幻 / 冒险
◎语  言 英语
◎上映日期 1987-08-07
◎IMDb评分 5.4/10 from 36191 users
◎IMDb链接 https://www.imdb.com/title/tt0093507/
◎豆瓣评分 5.6/10 from 161 users
◎豆瓣链接 https://movie.douban.com/subject/1298950/
◎片  长 106 分钟
◎导  演 加里·戈达尔 Gary Goddard
◎编  剧 唐诺·葛勒特 Donald F. Glut / David Odell
◎主  演 杜夫·龙格尔 Dolph Lundgren
      柯特妮·考克斯 Courteney Cox
      弗兰克·兰格拉 Frank Langella
      户田惠子 Keiko Toda
      庞斯·马尔 Pons Maar
      格温·基尔福德 Gwynne Gilford
      巴里·里维斯顿 Barry Livingston
      罗伯特·邓肯·麦克尼尔 Robert Duncan McNeill
      梅格·福斯特 Meg Foster
      切尔西.菲尔德 Chelsea Field
      比利·巴蒂 Billy Barty
      Tony Carroll
      乔恩·西弗 Jon Cypher
      Anthony De Longis
      克里斯蒂娜·皮克勒斯 Christina Pickles
      Walter Scott
      Walter Robles
      詹姆斯·托根 James Tolkan
      Robert Towers

◎标  签 美国 | 科幻 | 动作 | 奇幻 | 动画改編 | 1987 | 1980s | 魔幻

◎简  介

  卡通中的超级英雄太空超人终于跃上大银幕了!在这部真人版的太空超人中,老冤家幽灵王当然是不会缺席,这次两人为了要抢夺一把时空钥匙,而展开一场惊天动地的大战,因为这把钥匙的拥有者,将有能力控制时间与空间。

Video
ID : 1
Format : AVC
Format/Info : Advanced Video Codec
Format profile : [email protected]
Format settings : CABAC / 4 Ref Frames
Format settings, CABAC : Yes
Format settings, Reference frames : 4 frames
Codec ID : V_MPEG4/ISO/AVC
Duration : 1 h 45 min
Bit rate : 8 867 kb/s
Width : 1 920 pixels
Height : 1 080 pixels
Display aspect ratio : 16:9
Frame rate mode : Constant
Frame rate : 23.976 (24000/1001/189150) FPS
Color space : YUV
Chroma subsampling : 4:2:0
Bit depth : 8 bits
Scan type : Progressive
Bits/(Pixel*Frame) : 0.178
Stream size : 6.38 GiB (83%)
Writing library : x264 core 125 r2208 d9d2288
Encoding settings : cabac=1 / ref=4 / deblock=1:0:0 / analyse=0x3:0x113 / me=umh / subme=8 / psy=1 / psy_rd=1.00:0.00 / mixed_ref=1 / me_range=16 / chroma_me=1 / trellis=1 / 8x8dct=1 / cqm=0 / deadzone=21,11 / fast_pskip=1 / chroma_qp_offset=-2 / threads=12 / lookahead_threads=2 / sliced_threads=0 / nr=0 / decimate=1 / interlaced=0 / bluray_compat=0 / constrained_intra=0 / bframes=3 / b_pyramid=2 / b_adapt=2 / b_bias=0 / direct=3 / weightb=1 / open_gop=0 / weightp=2 / keyint=240 / keyint_min=24 / scenecut=40 / intra_refresh=0 / rc_lookahead=50 / rc=2pass / mbtree=1 / bitrate=8867 / ratetol=1.0 / qcomp=0.60 / qpmin=0 / qpmax=69 / qpstep=4 / cplxblur=20.0 / qblur=0.5 / ip_ratio=1.40 / aq=1:1.00
Language : English
Default : Yes
Forced : No

Audio
ID : 2
Format : DTS
Format/Info : Digital Theater Systems
Codec ID : A_DTS
Duration : 1 h 45 min
Bit rate mode : Constant
Bit rate : 1 509 kb/s
Channel(s) : 6 channels
Channel(s)_Original : 2 channels
ChannelLayout_Original : Lt Rt
Sampling rate : 48.0 kHz
Frame rate : 93.750 FPS (512 SPF)
Bit depth : 24 bits
Compression mode : Lossy
Stream size : 1.11 GiB (15%)
Language : English
Default : Yes
Forced : No

Text
ID : 3
Format : UTF-8
Codec ID : S_TEXT/UTF8
Codec ID/Info : UTF-8 Plain Text
Language : English
Default : No
Forced : No

Menu
00:00:00.000 : en:00:00:00.000
00:02:43.038 : en:00:02:43.038
00:05:24.533 : en:00:05:24.533
00:11:13.631 : en:00:11:13.631
00:16:43.669 : en:00:16:43.669
00:20:09.417 : en:00:20:09.417
00:24:34.515 : en:00:24:34.515
00:27:05.040 : en:00:27:05.040
00:29:45.450 : en:00:29:45.450
00:33:02.772 : en:00:33:02.772
00:36:56.256 : en:00:36:56.256
00:41:14.305 : en:00:41:14.305
00:42:21.873 : en:00:42:21.873
00:45:09.498 : en:00:45:09.498
00:50:12.509 : en:00:50:12.509
00:52:52.961 : en:00:52:52.961
00:55:44.299 : en:00:55:44.299
01:01:18.383 : en:01:01:18.383
01:04:30.450 : en:01:04:30.450
01:06:08.214 : en:01:06:08.214
01:10:49.871 : en:01:10:49.871
01:16:08.814 : en:01:16:08.814
01:21:12.367 : en:01:21:12.367
01:24:21.139 : en:01:24:21.139
01:26:53.667 : en:01:26:53.667
01:29:48.508 : en:01:29:48.508
01:33:01.326 : en:01:33:01.326
01:36:20.900 : en:01:36:20.900
01:39:06.941 : en:01:39:06.941
01:41:18.072 : en:01:41:18.072





1 个附件 售价 大小 下载 时间

Masters.of.the.Universe.1987.1080p.BluRay.x264-PSYCHD.zip 0 金币 77.96K 91 次 6天前

#1楼
发帖时间:2020-09-17 10:17:20   |   回复数:0
游客组