travismk
一代宗师

[更 早] [欧美] [喜剧] [4K-原盘] 女巫也疯狂/神猫救世界 Hocus.Pocus.1993.2160p.BluRay.REMUX.HEVC.DTS-HD.MA.5.1-FGT 55.82GB

-->

帖子完整标题:女巫也疯狂/神猫救世界 Hocus.Pocus.1993.2160p.BluRay.REMUX.HEVC.DTS-HD.MA.5.1-FGT 55.82GB



◎译  名 女巫也疯狂/神猫救世界
◎片  名 Hocus Pocus
◎年  代 1993
◎产  地 美国
◎类  别 喜剧 / 恐怖 / 家庭 / 奇幻
◎语  言 英语
◎上映日期 1993-07-16
◎IMDb评分 6.9/10 from 91056 users
◎IMDb链接 https://www.imdb.com/title/tt0107120/
◎豆瓣评分 6.7/10 from 598 users
◎豆瓣链接 https://movie.douban.com/subject/1300448/
◎片  长 96 分钟
◎导  演 肯尼·奥特加 Kenny Ortega
◎编  剧 米克·加里斯 Mick Garris / Neil Cuthbert / David Kirschner
◎主  演 莎拉·杰茜卡·帕克 Sarah Jessica Parker
      凯茜·纳基麦 Kathy Najimy
      索拉·伯奇 Thora Birch
      潘妮·马歇尔 Penny Marshall
      Joseph Malone
      Jordan Redmond
      唐·耶索 Don Yesso
      道格·琼斯 Doug Jones
      杰森·马斯登 Jason Marsden
      诺伯特·魏塞尔 Norbert Weisser
      托比亚斯·耶利内克 Tobias Jelinek
      凡妮莎·肖 Vinessa Shaw
      佩吉·霍姆斯 Peggy Holmes
      盖瑞·马歇尔 Garry Marshall
      查尔斯·罗基特 Charles Rocket
      Taylor Stanley
      Jodie Rivera
      凯瑟琳·弗里曼 Kathleen Freeman
      尚恩·穆雷 Sean Murray
      欧姆里·卡兹 Omri Katz
      斯蒂芬妮·法拉希 Stephanie Faracy
      克里斯·亨利·科菲 Chris Henry Coffey
      拉里·巴格比 Larry Bagby
      贝特·米德勒 Bette Midler

◎标  签 魔幻 | 美国 | 喜剧 | 女巫也疯狂 | 奇幻 | 1993 | 美国电影 | 鬼怪神灵

◎简  介

  故事发生在万圣节的夜晚,男孩马克思(欧姆里·卡兹 Omri Katz 饰)在误打误撞之中点燃了邪恶的蜡烛,将在三百年前早已经死去的三名女巫威尼弗雷德(贝特·米德勒 Bette Midler 饰)、莎拉(莎拉·杰西卡·帕克 Sarah Jessica Parker 饰)和马莉(凯茜·纳基麦 Kathy Najimy 饰)从地狱召唤回了人间。很久很久以前,这三名女巫因为吸食小孩的精气而被判以死刑,如今,再度回到阳间的她们决定重蹈覆辙。
  
  得知了女巫们的阴谋,马克思决定绝不坐视不管。他找到了妹妹丹尼(索拉·伯奇 Thora Birch 饰)和好友艾莉森(凡妮莎·肖 Vinessa Shaw 饰)三人一起行动,计划破坏女巫们的行动。留给孩子们的时间已经很少了。

Video
ID : 1
ID in the original source medium : 4113 (0x1011)
Format : HEVC
Format/Info : High Efficiency Video Coding
Format profile : Main [email protected]@High
HDR format : SMPTE ST 2086, HDR10 compatible
Codec ID : V_MPEGH/ISO/HEVC
Duration : 1 h 36 min
Bit rate : 77.3 Mb/s
Width : 3 840 pixels
Height : 2 160 pixels
Display aspect ratio : 16:9
Frame rate mode : Constant
Frame rate : 23.976 (24000/1001/189150) FPS
Color space : YUV
Chroma subsampling : 4:2:0 (Type 2)
Bit depth : 10 bits
Bits/(Pixel*Frame) : 0.389
Stream size : 51.9 GiB (93%)
Title : Hocus.Pocus.1993.2160p.BluRay.REMUX.HEVC.DTS-HD.MA.5.1-FGT
Language : English
Default : No
Forced : No
Color range : Limited
Color primaries : BT.2020
Transfer characteristics : PQ
Matrix coefficients : BT.2020 non-constant
Mastering display color primaries : Display P3
Mastering display luminance : min: 0.0001 cd/m2, max: 1000 cd/m2
Original source medium : Blu-ray

Audio #1
ID : 2
ID in the original source medium : 4352 (0x1100)
Format : DTS XLL
Format/Info : Digital Theater Systems
Commercial name : DTS-HD Master Audio
Codec ID : A_DTS
Duration : 1 h 36 min
Bit rate mode : Variable
Bit rate : 4 191 kb/s
Channel(s) : 6 channels
Channel layout : C L R Ls Rs LFE
Sampling rate : 48.0 kHz
Frame rate : 93.750 FPS (512 SPF)
Bit depth : 24 bits
Compression mode : Lossless
Stream size : 2.81 GiB (5%)
Title : Hocus.Pocus.1993.2160p.BluRay.REMUX.HEVC.DTS-HD.MA.5.1-FGT
Language : English
Default : Yes
Forced : No
Original source medium : Blu-ray

Audio #2
ID : 3
ID in the original source medium : 4353 (0x1101)
Format : AC-3
Format/Info : Audio Coding 3
Commercial name : Dolby Digital
Codec ID : A_AC3
Duration : 1 h 36 min
Bit rate mode : Constant
Bit rate : 320 kb/s
Channel(s) : 2 channels
Channel layout : L R
Sampling rate : 48.0 kHz
Frame rate : 31.250 FPS (1536 SPF)
Compression mode : Lossy
Stream size : 220 MiB (0%)
Title : Hocus.Pocus.1993.2160p.BluRay.REMUX.HEVC.DTS-HD.MA.5.1-FGT
Language : English
Service kind : Complete Main
Default : No
Forced : No
Original source medium : Blu-ray

Audio #3
ID : 4
ID in the original source medium : 4354 (0x1102)
Format : AC-3
Format/Info : Audio Coding 3
Commercial name : Dolby Digital
Codec ID : A_AC3
Duration : 1 h 36 min
Bit rate mode : Constant
Bit rate : 640 kb/s
Channel(s) : 6 channels
Channel layout : L R C LFE Ls Rs
Sampling rate : 48.0 kHz
Frame rate : 31.250 FPS (1536 SPF)
Compression mode : Lossy
Stream size : 440 MiB (1%)
Title : Hocus.Pocus.1993.2160p.BluRay.REMUX.HEVC.DTS-HD.MA.5.1-FGT
Language : French
Service kind : Complete Main
Default : No
Forced : No
Original source medium : Blu-ray

Audio #4
ID : 5
ID in the original source medium : 4355 (0x1103)
Format : AC-3
Format/Info : Audio Coding 3
Commercial name : Dolby Digital
Codec ID : A_AC3
Duration : 1 h 36 min
Bit rate mode : Constant
Bit rate : 640 kb/s
Channel(s) : 6 channels
Channel layout : L R C LFE Ls Rs
Sampling rate : 48.0 kHz
Frame rate : 31.250 FPS (1536 SPF)
Compression mode : Lossy
Stream size : 440 MiB (1%)
Title : Hocus.Pocus.1993.2160p.BluRay.REMUX.HEVC.DTS-HD.MA.5.1-FGT
Language : Spanish
Service kind : Complete Main
Default : No
Forced : No
Original source medium : Blu-ray

Text #1
ID : 6
Format : UTF-8
Codec ID : S_TEXT/UTF8
Codec ID/Info : UTF-8 Plain Text
Duration : 1 h 32 min
Bit rate : 53 b/s
Count of elements : 1496
Stream size : 36.4 KiB (0%)
Title : English-SRT
Language : English
Default : Yes
Forced : No

Text #2
ID : 7
ID in the original source medium : 4768 (0x12A0)
Format : PGS
Muxing mode : zlib
Codec ID : S_HDMV/PGS
Codec ID/Info : Picture based subtitle format used on BDs/HD-DVDs
Duration : 1 h 33 min
Bit rate : 71.9 kb/s
Count of elements : 3620
Stream size : 48.3 MiB (0%)
Title : English-PGS
Language : English
Default : No
Forced : No
Original source medium : Blu-ray

Text #3
ID : 8
ID in the original source medium : 4769 (0x12A1)
Format : PGS
Muxing mode : zlib
Codec ID : S_HDMV/PGS
Codec ID/Info : Picture based subtitle format used on BDs/HD-DVDs
Duration : 1 h 31 min
Bit rate : 42.4 kb/s
Count of elements : 1562
Stream size : 27.7 MiB (0%)
Title : French-PGS
Language : French
Default : No
Forced : No
Original source medium : Blu-ray

Text #4
ID : 9
ID in the original source medium : 4770 (0x12A2)
Format : PGS
Muxing mode : zlib
Codec ID : S_HDMV/PGS
Codec ID/Info : Picture based subtitle format used on BDs/HD-DVDs
Duration : 1 h 31 min
Bit rate : 48.2 kb/s
Count of elements : 2258
Stream size : 31.5 MiB (0%)
Title : Spanish-PGS
Language : Spanish
Default : No
Forced : No
Original source medium : Blu-ray

Text #5
ID : 10
ID in the original source medium : 4771 (0x12A3)
Format : PGS
Muxing mode : zlib
Codec ID : S_HDMV/PGS
Codec ID/Info : Picture based subtitle format used on BDs/HD-DVDs
Duration : 1 s 398 ms
Bit rate : 141 kb/s
Count of elements : 2
Stream size : 24.1 KiB (0%)
Title : French-FORCED-PGS
Language : French
Default : No
Forced : No
Original source medium : Blu-ray

Text #6
ID : 11
ID in the original source medium : 4772 (0x12A4)
Format : PGS
Muxing mode : zlib
Codec ID : S_HDMV/PGS
Codec ID/Info : Picture based subtitle format used on BDs/HD-DVDs
Duration : 1 h 9 min
Bit rate : 596 b/s
Count of elements : 22
Stream size : 303 KiB (0%)
Title : Spanish-FORCED-PGS
Language : Spanish
Default : No
Forced : No
Original source medium : Blu-ray

Menu
00:00:00.000 : en:Chapter 01
00:08:39.769 : en:Chapter 02
00:14:00.464 : en:Chapter 03
00:20:18.967 : en:Chapter 04
00:26:45.478 : en:Chapter 05
00:32:10.595 : en:Chapter 06
00:36:42.950 : en:Chapter 07
00:43:58.552 : en:Chapter 08
00:48:03.297 : en:Chapter 09
00:54:17.462 : en:Chapter 10
01:01:22.762 : en:Chapter 11
01:06:02.166 : en:Chapter 12
01:08:21.722 : en:Chapter 13
01:14:38.849 : en:Chapter 14
01:21:29.342 : en:Chapter 15
01:29:09.385 : en:Chapter 16





1 个附件 售价 大小 下载 时间

Hocus.Pocus.1993.2160p.BluRay.REMUX.HEVC.DTS-HD.MA.5.1-FGT.zip 0 金币 140.23K 91 次 6天前

#1楼
发帖时间:2020-09-17 10:20:55   |   回复数:0
游客组