squallzhao
武林盟主

[更 早] [其他] [动作] [BD-1080P] 雪岭过江龙 Death.Hunt.1981.1080p.BluRay.x264-PSYCHD 7.94GB

-->

帖子完整标题:雪岭过江龙 Death.Hunt.1981.1080p.BluRay.x264-PSYCHD 7.94GB



◎译  名 雪岭过江龙
◎片  名 Death Hunt
◎年  代 1981
◎产  地 美国,中国香港
◎类  别 动作 / 惊悚 / 犯罪 / 冒险
◎语  言 英语
◎上映日期 1981-05-22
◎IMDb评分 7/10 from 6660 users
◎IMDb链接 https://www.imdb.com/title/tt0082247/
◎豆瓣评分 7.2/10 from 115 users
◎豆瓣链接 https://movie.douban.com/subject/1303406/
◎片  长 97 分钟
◎导  演 彼特·R·亨特 Peter R. Hunt
◎主  演 肖恩·麦卡恩 Sean McCann
      威廉·桑德森 William Sanderson
      李·马文 Lee Marvin
      莫里·柴金 Maury Chaykin
      James O'Connell
      乔恩·锡达 Jon Cedar
      兰-莱瑟 Len Lesser
      埃德·劳特尔 Ed Lauter
      理查德·黛沃洛斯 Richard Davalos
      Rayford Barnes
      亨利·贝克曼 Henry Beckman
      坦图·卡丁诺 Tantoo Cardinal
      卡尔·韦瑟斯 Carl Weathers
      安吉·迪金森 Angie Dickinson
      安德鲁 史蒂文斯 Andrew Stevens
      奥古斯特·斯彻伦伯格 August Schellenberg
      查尔斯·布朗森 Charles Bronson

◎标  签 动作 | 美国 | 史上逃亡之王 | 逃亡 | 1981 | 犯罪 | 美国电影 | 冒险

◎简  介

  该片讲述三十年代加拿大著名的猎人阿伯特强生,被老羞成怒的的恶霸围杀,警长阻止无效。强生于是与歹徒火并,冲出包围后逃亡到雪山之中,而警长尾随其后,意欲将其缉拿归案。这部由查尔斯.布朗森和李.马文等主演的男性动作片,拍于冰天雪地之中,场面火爆动作刺激,两位粗线条的主角均开正戏路,但演警长情妇的安吉.迪金森却似乎没有发挥之处。

Video
ID : 1
Format : AVC
Format/Info : Advanced Video Codec
Format profile : [email protected]
Format settings : CABAC / 4 Ref Frames
Format settings, CABAC : Yes
Format settings, Reference frames : 4 frames
Codec ID : V_MPEG4/ISO/AVC
Duration : 1 h 37 min
Bit rate : 11.0 Mb/s
Width : 1 920 pixels
Height : 1 048 pixels
Display aspect ratio : 1.85:1
Frame rate mode : Constant
Frame rate : 23.976 (24000/1001/189150) FPS
Color space : YUV
Chroma subsampling : 4:2:0
Bit depth : 8 bits
Scan type : Progressive
Bits/(Pixel*Frame) : 0.227
Stream size : 7.27 GiB (91%)
Writing library : x264 core 132 r2310 76a5c3a
Encoding settings : cabac=1 / ref=4 / deblock=1:-3:-3 / analyse=0x3:0x113 / me=umh / subme=8 / psy=1 / psy_rd=1.00:0.00 / mixed_ref=1 / me_range=16 / chroma_me=1 / trellis=1 / 8x8dct=1 / cqm=0 / deadzone=21,11 / fast_pskip=1 / chroma_qp_offset=-2 / threads=18 / lookahead_threads=3 / sliced_threads=0 / nr=0 / decimate=1 / interlaced=0 / bluray_compat=0 / constrained_intra=0 / bframes=3 / b_pyramid=2 / b_adapt=2 / b_bias=0 / direct=3 / weightb=1 / open_gop=0 / weightp=2 / keyint=240 / keyint_min=24 / scenecut=40 / intra_refresh=0 / rc_lookahead=50 / rc=2pass / mbtree=1 / bitrate=10952 / ratetol=1.0 / qcomp=0.60 / qpmin=0 / qpmax=69 / qpstep=4 / cplxblur=20.0 / qblur=0.5 / ip_ratio=1.40 / aq=1:1.00
Language : English
Default : Yes
Forced : No

Audio
ID : 2
Format : DTS
Format/Info : Digital Theater Systems
Codec ID : A_DTS
Duration : 1 h 37 min
Bit rate mode : Constant
Bit rate : 768 kb/s
Channel(s) : 6 channels
Channel(s)_Original : 2 channels
ChannelLayout_Original : L R
Sampling rate : 48.0 kHz
Frame rate : 93.750 FPS (512 SPF)
Bit depth : 24 bits
Compression mode : Lossy
Stream size : 533 MiB (7%)
Language : English
Default : Yes
Forced : No

Text
ID : 3
Format : UTF-8
Codec ID : S_TEXT/UTF8
Codec ID/Info : UTF-8 Plain Text
Language : English
Default : No
Forced : No

Menu
00:00:00.000 : en:00:00:00.000
00:07:37.707 : en:00:07:37.707
00:16:22.815 : en:00:16:22.815
00:20:46.412 : en:00:20:46.412
00:29:50.789 : en:00:29:50.789
00:39:37.417 : en:00:39:37.417
00:45:57.004 : en:00:45:57.004
00:55:13.268 : en:00:55:13.268
01:02:43.426 : en:01:02:43.426
01:08:31.399 : en:01:08:31.399
01:20:44.757 : en:01:20:44.757
01:27:29.828 : en:01:27:29.828





1 个附件 售价 大小 下载 时间

Death.Hunt.1981.1080p.BluRay.x264-PSYCHD.zip 0 金币 80.87K 112 次 6天前

#1楼
发帖时间:2020-09-17 10:23:44   |   回复数:0
游客组