squallzhao
武林盟主

[更 早] [欧美] [喜剧] [BD-1080P] 上流社会 Society.1989.1080p.BluRay.x264-PSYCHD 8.74GB

-->

帖子完整标题:上流社会 Society.1989.1080p.BluRay.x264-PSYCHD 8.74GB



◎译  名 上流社会
◎片  名 Society
◎年  代 1989
◎产  地 美国
◎类  别 喜剧 / 悬疑 / 恐怖
◎语  言 英语
◎上映日期 1989-05-13(戛纳电影节) / 1992-06-11(美国)
◎IMDb评分 6.5/10 from 14034 users
◎IMDb链接 https://www.imdb.com/title/tt0098354/
◎豆瓣评分 7.2/10 from 1138 users
◎豆瓣链接 https://movie.douban.com/subject/2265805/
◎片  长 99 分钟
◎导  演 布莱恩·尤兹纳 Brian Yuzna
◎主  演 比利·沃拉克 Billy Warlock
      Devin DeVasquez
      艾凡·里察斯 Evan Richards
      帕特利斯·詹宁斯 Patrice Jennings
      海蒂·科扎克 Heidi Kozak
      Ben Slack
      杰森·威廉姆斯 Jason Williams
      Pamela Matheson
      Mark David

◎标  签 恐怖 | Cult | 美国 | 荒诞 | 美国电影 | 1989 | 1980s | B片儿

◎简  介

  比尔很是反感其父母整日出入于阶级社会打交道,自从他的朋友理查德死于车祸后,其家人的行为越来越奇怪,比尔决定暗中调查他们,结果却发现一个惊天秘密 (这部精彩的电影是活魔人原班人马制作,1990年布鲁塞尔奇幻电影节最佳化妆特效奖得主, 片子对当代社会的讽刺可谓是 前无古人后无来者,赤裸裸地揭露了资本主义的邪恶本质,乃当今恐怖迷必看影片之一)

Video
ID : 1
Format : AVC
Format/Info : Advanced Video Codec
Format profile : [email protected]
Format settings : CABAC / 4 Ref Frames
Format settings, CABAC : Yes
Format settings, Reference frames : 4 frames
Codec ID : V_MPEG4/ISO/AVC
Duration : 1 h 39 min
Bit rate : 12.0 Mb/s
Width : 1 920 pixels
Height : 1 080 pixels
Display aspect ratio : 16:9
Frame rate mode : Constant
Frame rate : 23.976 (24000/1001/189150) FPS
Color space : YUV
Chroma subsampling : 4:2:0
Bit depth : 8 bits
Scan type : Progressive
Bits/(Pixel*Frame) : 0.241
Stream size : 8.12 GiB (93%)
Writing library : x264 core 138 r2358 9e941d1
Encoding settings : cabac=1 / ref=4 / deblock=1:-3:-3 / analyse=0x3:0x133 / me=umh / subme=8 / psy=1 / psy_rd=1.00:0.15 / mixed_ref=1 / me_range=16 / chroma_me=1 / trellis=1 / 8x8dct=1 / cqm=0 / deadzone=21,11 / fast_pskip=1 / chroma_qp_offset=-3 / threads=12 / lookahead_threads=2 / sliced_threads=0 / nr=0 / decimate=1 / interlaced=0 / bluray_compat=0 / constrained_intra=0 / bframes=3 / b_pyramid=2 / b_adapt=2 / b_bias=0 / direct=3 / weightb=1 / open_gop=0 / weightp=2 / keyint=230 / keyint_min=23 / scenecut=40 / intra_refresh=0 / rc_lookahead=50 / rc=2pass / mbtree=1 / bitrate=11979 / ratetol=1.0 / qcomp=0.60 / qpmin=0 / qpmax=69 / qpstep=4 / cplxblur=20.0 / qblur=0.5 / ip_ratio=1.40 / aq=1:1.00
Language : English
Default : Yes
Forced : No

Audio
ID : 2
Format : AC-3
Format/Info : Audio Coding 3
Commercial name : Dolby Digital
Codec ID : A_AC3
Duration : 1 h 39 min
Bit rate mode : Constant
Bit rate : 640 kb/s
Channel(s) : 6 channels
Channel(s)_Original : 2 channels
ChannelLayout_Original : L R
Sampling rate : 48.0 kHz
Frame rate : 31.250 FPS (1536 SPF)
Compression mode : Lossy
Stream size : 454 MiB (5%)
Language : English
Service kind : Complete Main
Default : Yes
Forced : No

Menu
00:00:00.000 : en:00:00:00.000
00:05:01.343 : en:00:05:01.343
00:09:51.341 : en:00:09:51.341
00:14:08.014 : en:00:14:08.014
00:19:18.783 : en:00:19:18.783
00:25:47.921 : en:00:25:47.921
00:31:49.908 : en:00:31:49.908
00:38:53.540 : en:00:38:53.540
00:44:23.911 : en:00:44:23.911
00:49:23.127 : en:00:49:23.127
00:55:55.227 : en:00:55:55.227
01:02:00.425 : en:01:02:00.425
01:08:01.494 : en:01:08:01.494
01:16:53.275 : en:01:16:53.275
01:25:12.733 : en:01:25:12.733
01:34:53.605 : en:01:34:53.605





1 个附件 售价 大小 下载 时间

Society.1989.1080p.BluRay.x264-PSYCHD.zip 0 金币 88.80K 189 次 7天前

#1楼
发帖时间:2020-09-17 10:25:41   |   回复数:0
游客组