squallzhao
武林盟主

[2017] [其他] [剧情] [BD-1080P] 六天/六日 6.Days.2017.1080p.BluRay.x264-PSYCHD 6.57GB

-->

帖子完整标题:六天/六日 6.Days.2017.1080p.BluRay.x264-PSYCHD 6.57GB



◎译  名 六天/六日
◎片  名 6 Days
◎年  代 2017
◎产  地 英国,新西兰
◎类  别 剧情 / 动作 / 惊悚 / 历史
◎语  言 英语
◎上映日期 2017-08-04(新西兰电影节) / 2017-09-07(新西兰)
◎IMDb评分 6.2/10 from 17551 users
◎IMDb链接 https://www.imdb.com/title/tt4703048/
◎豆瓣评分 6.3/10 from 2058 users
◎豆瓣链接 https://movie.douban.com/subject/26438227/
◎片  长 94分钟
◎导  演 托亚·弗莱瑟 Toa Fraser
◎编  剧 格伦·斯坦德灵 Glenn Standring
◎主  演 杰米·贝尔 Jamie Bell
      马克·斯特朗 Mark Strong
      艾比·考尼什 Abbie Cornish
      马丁·肖 Martin Shaw
      本·特纳 Ben Turner
      埃蒙·埃利奥特 Emun Elliott
      艾蒙·汉道奇 Aymen Hamdouchi
      安得烈·格兰杰 Andrew Grainger
      特克赫·图哈卡 Te Kohe Tuhaka
      威廉·丘布 William Chubb
      罗南·维博特 Ronan Vibert
      蒂姆·唐尼 Tim Downie
      马修·桑德兰 Matthew Sunderland
      肯尼斯·克拉德 Kenneth Collard
      尼古拉斯·博尔顿 Nicholas Boulton
      基普·查普曼 Kip Chapman
      埃里克·科尔文 Eric Colvin
      约翰·亨肖 John Henshaw
      科林·莫伊 Colin Moy
      蒂姆·皮戈特-史密斯 Tim Pigott-Smith
      罗伯特·波特尔 Robert Portal
      杰·萨瑟兰 Jay Sutherland
      贾里德·特纳 Jared Turner
      格伦·利维 Glen Levy

◎标  签 英国 | 真实事件改编 | 反恐 | 动作 | SAS | 军事 | 2017 | 剧情

◎简  介

  该片根据真实事件改编,1980年伊朗驻伦敦大使馆遭六名恐怖分子袭击,而SAS(特种空勤团)战士等和恐怖分子的对峙持续将近六天,第六日最后的反击开始。

Video
ID : 1
Format : AVC
Format/Info : Advanced Video Codec
Format profile : [email protected]
Format settings : CABAC / 5 Ref Frames
Format settings, CABAC : Yes
Format settings, Reference frames : 5 frames
Codec ID : V_MPEG4/ISO/AVC
Duration : 1 h 34 min
Bit rate : 8 418 kb/s
Width : 1 920 pixels
Height : 808 pixels
Display aspect ratio : 2.40:1
Frame rate mode : Constant
Frame rate : 23.976 (24000/1001/189150) FPS
Color space : YUV
Chroma subsampling : 4:2:0
Bit depth : 8 bits
Scan type : Progressive
Bits/(Pixel*Frame) : 0.226
Stream size : 5.43 GiB (83%)
Writing library : x264 core 152 r2851 ba24899
Encoding settings : cabac=1 / ref=5 / deblock=1:-3:-3 / analyse=0x3:0x113 / me=umh / subme=8 / psy=1 / psy_rd=1.00:0.00 / mixed_ref=1 / me_range=32 / chroma_me=1 / trellis=1 / 8x8dct=1 / cqm=0 / deadzone=21,11 / fast_pskip=1 / chroma_qp_offset=-2 / threads=24 / lookahead_threads=4 / sliced_threads=0 / nr=0 / decimate=1 / interlaced=0 / bluray_compat=0 / constrained_intra=0 / bframes=3 / b_pyramid=2 / b_adapt=2 / b_bias=0 / direct=3 / weightb=1 / open_gop=0 / weightp=2 / keyint=240 / keyint_min=24 / scenecut=40 / intra_refresh=0 / rc_lookahead=50 / rc=2pass / mbtree=1 / bitrate=8418 / ratetol=1.0 / qcomp=0.60 / qpmin=0 / qpmax=69 / qpstep=4 / cplxblur=20.0 / qblur=0.5 / ip_ratio=1.40 / aq=3:0.80
Default : Yes
Forced : No
Statistics Tags Issue : no_variable_data 1970-01-01 00:00:00 / no_variable_data 2010-02-22 21:41:29
FromStats_BitRate : 8414268
FromStats_Duration : 01:34:34.085000000
FromStats_FrameCount : 136042
FromStats_StreamSize : 5967909096

Audio
ID : 2
Format : DTS
Format/Info : Digital Theater Systems
Codec ID : A_DTS
Duration : 1 h 34 min
Bit rate mode : Constant
Bit rate : 1 509 kb/s
Channel(s) : 6 channels
Channel layout : C L R Ls Rs LFE
Sampling rate : 48.0 kHz
Frame rate : 93.750 FPS (512 SPF)
Bit depth : 24 bits
Compression mode : Lossy
Stream size : 1 021 MiB (15%)
Language : English
Default : Yes
Forced : No
Statistics Tags Issue : no_variable_data 1970-01-01 00:00:00 / no_variable_data 2010-02-22 21:41:29
FromStats_BitRate : 1508999
FromStats_Duration : 01:34:34.091000000
FromStats_FrameCount : 531946
FromStats_StreamSize : 1070275352

Text #1
ID : 3
Format : UTF-8
Codec ID : S_TEXT/UTF8
Codec ID/Info : UTF-8 Plain Text
Title : Forced
Language : English
Default : Yes
Forced : Yes
Statistics Tags Issue : no_variable_data 1970-01-01 00:00:00 / no_variable_data 2010-02-22 21:41:29
FromStats_BitRate : 1
FromStats_Duration : 01:01:44.743000000
FromStats_FrameCount : 25
FromStats_StreamSize : 590

Text #2
ID : 4
Format : UTF-8
Codec ID : S_TEXT/UTF8
Codec ID/Info : UTF-8 Plain Text
Language : English
Default : No
Forced : No
Statistics Tags Issue : no_variable_data 1970-01-01 00:00:00 / no_variable_data 2010-02-22 21:41:29
FromStats_BitRate : 52
FromStats_Duration : 01:27:59.065000000
FromStats_FrameCount : 1032
FromStats_StreamSize : 34614

Text #3
ID : 5
Format : UTF-8
Codec ID : S_TEXT/UTF8
Codec ID/Info : UTF-8 Plain Text
Title : SDH
Language : English
Default : No
Forced : No
Statistics Tags Issue : no_variable_data 1970-01-01 00:00:00 / no_variable_data 2010-02-22 21:41:29
FromStats_BitRate : 60
FromStats_Duration : 01:28:18.626000000
FromStats_FrameCount : 1241
FromStats_StreamSize : 39849

Menu
00:00:00.000 : en:00:00:00.000
00:05:53.436 : en:00:05:53.436
00:11:55.757 : en:00:11:55.757
00:17:58.577 : en:00:17:58.577
00:24:04.860 : en:00:24:04.860
00:30:02.175 : en:00:30:02.175
00:36:44.327 : en:00:36:44.327
00:41:56.139 : en:00:41:56.139
00:48:57.726 : en:00:48:57.726
00:54:16.503 : en:00:54:16.503
01:00:52.148 : en:01:00:52.148
01:06:29.319 : en:01:06:29.319
01:12:07.448 : en:01:12:07.448
01:17:54.336 : en:01:17:54.336
01:24:07.376 : en:01:24:07.376
01:30:12.073 : en:01:30:12.073





1 个附件 售价 大小 下载 时间

6.Days.2017.1080p.BluRay.x264-PSYCHD.zip 0 金币 132.96K 154 次 7天前

#1楼
发帖时间:2020-09-17 10:27:48   |   回复数:0
游客组