squallzhao
武林盟主

[更 早] [其他] [恐怖] [BD-1080P] 诺斯费拉图:夜晚的幽灵 Nosferatu.the.Vampyre.1979.1080p.BluRay.x264-PSYCHD 8.75GB

-->

帖子完整标题:诺斯费拉图:夜晚的幽灵 Nosferatu.the.Vampyre.1979.1080p.BluRay.x264-PSYCHD 8.75GB



◎译  名 诺斯费拉图:夜晚的幽灵/Nosferatu the Vampyre/Nosferatu: Phantom of the Night/吸血僵尸(港)/吸血鬼(台)/魔鬼诺斯法雷图
◎片  名 Nosferatu: Phantom der Nacht
◎年  代 1979
◎产  地 法国,西德
◎类  别 恐怖 / 奇幻
◎语  言 德语
◎上映日期 1979-01-17
◎IMDb评分 7.5/10 from 31487 users
◎IMDb链接 https://www.imdb.com/title/tt0079641/
◎豆瓣评分 7.8/10 from 3944 users
◎豆瓣链接 https://movie.douban.com/subject/1296646/
◎片  长 107 分钟
◎导  演 沃纳·赫尔佐格 Werner Herzog
◎编  剧 沃纳·赫尔佐格 Werner Herzog / 布莱姆·斯托克 Bram Stoker
◎主  演 克劳斯·金斯基 Klaus Kinski
      伊莎贝尔·阿佳妮 Isabelle Adjani
      布鲁诺·冈茨 Bruno Ganz
      达·范·汉森德 Dan van Husen
      John Leddy
      瓦尔特·拉登加斯特 Walter Ladengast
      Norbert Losch
      Johan te Slaa
      Rijk de Gooyer
      Lo van Hensbergen
      Jan Groth
      洛朗·托坡尔 Roland Topor
      阿提拉·阿帕 Attila árpa
      Tim Beekman
      雅克·迪菲约 Jacques Dufilho
      Michael Edols
      沃纳·赫尔佐格 Werner Herzog

◎标  签 吸血鬼 | 德国 | 赫尔佐格 | 阿佳妮 | 德国电影 | 法国 | WernerHerzog | 恐怖

◎简  介

  庄森(Bruno Ganz 饰)和露西(Isabelle Adjani 伊莎贝尔?阿佳妮 饰)是一对生活在德国维斯马的恩爱情侣,他们的婚事在即,紧张幸福。但庄森突然接到消息,居住在城堡中的德古拉伯爵(Klaus Kinski 克劳斯?金斯基 饰)意欲购买一套房子,露西家附近刚好有一间,为了筹备婚礼庄森欣然前往。然而令他难以置信的是,德古拉伯爵竟是传说中的吸血鬼。庄森被他吸去了鲜血,九死一生逃回家中。
  
  看过露西相片的德古拉伯爵认定这就是自己的前世恋人,他化作人形,以房主的身份来到刚刚购买的房子里,伺机行动……

◎获奖情况

  第29届柏林国际电影节 ?(1979)
  金熊奖最佳影片(提名) 沃纳·赫尔佐格

Video
ID : 1
Format : AVC
Format/Info : Advanced Video Codec
Format profile : [email protected]
Format settings : CABAC / 4 Ref Frames
Format settings, CABAC : Yes
Format settings, Reference frames : 4 frames
Codec ID : V_MPEG4/ISO/AVC
Duration : 1 h 47 min
Bit rate : 11.1 Mb/s
Width : 1 920 pixels
Height : 1 040 pixels
Display aspect ratio : 1.85:1
Frame rate mode : Constant
Frame rate : 24.000 FPS
Color space : YUV
Chroma subsampling : 4:2:0
Bit depth : 8 bits
Scan type : Progressive
Bits/(Pixel*Frame) : 0.231
Stream size : 8.09 GiB (93%)
Writing library : x264 core 142 r2431 ac76440
Encoding settings : cabac=1 / ref=4 / deblock=1:-3:-3 / analyse=0x3:0x113 / me=umh / subme=8 / psy=1 / psy_rd=1.00:0.00 / mixed_ref=1 / me_range=16 / chroma_me=1 / trellis=1 / 8x8dct=1 / cqm=0 / deadzone=21,11 / fast_pskip=1 / chroma_qp_offset=-2 / threads=6 / lookahead_threads=1 / sliced_threads=0 / nr=0 / decimate=1 / interlaced=0 / bluray_compat=0 / constrained_intra=0 / bframes=3 / b_pyramid=2 / b_adapt=2 / b_bias=0 / direct=3 / weightb=1 / open_gop=0 / weightp=2 / keyint=240 / keyint_min=24 / scenecut=40 / intra_refresh=0 / rc_lookahead=50 / rc=2pass / mbtree=1 / bitrate=11058 / ratetol=1.0 / qcomp=0.60 / qpmin=0 / qpmax=69 / qpstep=4 / cplxblur=20.0 / qblur=0.5 / ip_ratio=1.40 / aq=1:1.00
Language : English
Default : Yes
Forced : No

Audio
ID : 2
Format : AC-3
Format/Info : Audio Coding 3
Commercial name : Dolby Digital
Codec ID : A_AC3
Duration : 1 h 47 min
Bit rate mode : Constant
Bit rate : 640 kb/s
Channel(s) : 1 channel
Channel layout : C
Sampling rate : 48.0 kHz
Frame rate : 31.250 FPS (1536 SPF)
Compression mode : Lossy
Stream size : 490 MiB (5%)
Language : English
Service kind : Complete Main
Default : Yes
Forced : No

Menu
00:00:00.000 : en:00:00:00.000
00:08:46.125 : en:00:08:46.125
00:12:05.750 : en:00:12:05.750
00:21:15.875 : en:00:21:15.875
00:27:56.292 : en:00:27:56.292
00:41:29.333 : en:00:41:29.333
00:52:54.083 : en:00:52:54.083
01:02:43.958 : en:01:02:43.958
01:14:33.833 : en:01:14:33.833
01:27:18.833 : en:01:27:18.833
01:36:11.417 : en:01:36:11.417
01:42:25.375 : en:01:42:25.375





1 个附件 售价 大小 下载 时间

Nosferatu.the.Vampyre.1979.1080p.BluRay.x264-PSYCHD.zip 0 金币 88.92K 119 次 6天前

#1楼
发帖时间:2020-09-17 10:28:38   |   回复数:0
游客组