travismk
一代宗师

[2020] [其他] [惊悚] [WEB-1080P] 护理师 The.Paramedic.2020.SPANISH.1080p.NF.WEBRip.DDP5.1.x264-PTP 2.95GB

-->

帖子完整标题:护理师 The.Paramedic.2020.SPANISH.1080p.NF.WEBRip.DDP5.1.x264-PTP 2.95GB



◎译  名 护理师/The Paramedic
◎片  名 El practicante
◎年  代 2020
◎产  地 西班牙
◎类  别 惊悚
◎语  言 西班牙语
◎上映日期 2020-09-16(西班牙)
◎IMDb链接 https://www.imdb.com/title/tt11127690/
◎豆瓣评分 /10 from 0 users
◎豆瓣链接 https://movie.douban.com/subject/34892800/
◎片  长 94分钟
◎导  演 卡洛斯·托拉斯 Carles Torras
◎编  剧 卡洛斯·托拉斯 Carles Torras / 埃克托·埃尔南德斯·比森斯 Hèctor Hernández Vicens / 大卫·德索拉 David Desola
◎主  演 马里奥·卡萨斯 Mario Casas
      黛博拉·弗朗索瓦 Déborah Fran?ois
      吉列尔莫·普宁 Guillermo Pfening
      劳尔·希门尼斯 Raúl Jiménez
      波尔·莫南 Pol Monen
      Celso Bugallo

◎标  签 西班牙电影 | 西班牙 | M西班牙 | D卡洛斯·托拉斯 | 2020

◎简  介

  Angel works in an ambulance service. After a tragic accident, his personal life begins to deteriorate as he becomes more and more suspicious of his partner Vane.

Video
ID : 1
Format : AVC
Format/Info : Advanced Video Codec
Format profile : [email protected]
Format settings : CABAC / 4 Ref Frames
Format settings, CABAC : Yes
Format settings, Reference frames : 4 frames
Codec ID : V_MPEG4/ISO/AVC
Duration : 1 h 34 min
Bit rate mode : Variable
Bit rate : 3 188 kb/s
Maximum bit rate : 20.0 Mb/s
Width : 1 920 pixels
Height : 1 080 pixels
Display aspect ratio : 16:9
Frame rate mode : Constant
Frame rate : 25.000 FPS
Color space : YUV
Chroma subsampling : 4:2:0
Bit depth : 8 bits
Scan type : Progressive
Bits/(Pixel*Frame) : 0.061
Stream size : 2.10 GiB (71%)
Writing library : x264 core 148 r2722 1b0121b
Encoding settings : cabac=1 / ref=4 / deblock=1:0:0 / analyse=0x3:0x111 / me=umh / subme=10 / psy=1 / psy_rd=1.00:0.00 / mixed_ref=1 / me_range=120 / chroma_me=1 / trellis=2 / 8x8dct=1 / cqm=0 / deadzone=21,11 / fast_pskip=1 / chroma_qp_offset=-2 / threads=8 / lookahead_threads=2 / sliced_threads=0 / nr=0 / decimate=1 / interlaced=0 / bluray_compat=0 / stitchable=1 / constrained_intra=0 / bframes=16 / b_pyramid=2 / b_adapt=2 / b_bias=0 / direct=3 / weightb=1 / open_gop=0 / weightp=2 / keyint=250 / keyint_min=126 / scenecut=0 / intra_refresh=0 / rc_lookahead=250 / rc=crf / mbtree=1 / crf=16.0 / qcomp=0.50 / qpmin=6 / qpmax=51 / qpstep=4 / vbv_maxrate=20000 / vbv_bufsize=25000 / crf_max=0.0 / nal_hrd=vbr / filler=0 / ip_ratio=1.40 / aq=1:0.80
Default : Yes
Forced : No

Audio #1
ID : 2
Format : E-AC-3
Format/Info : Enhanced AC-3
Commercial name : Dolby Digital Plus
Codec ID : A_EAC3
Duration : 1 h 34 min
Bit rate mode : Constant
Bit rate : 640 kb/s
Channel(s) : 6 channels
Channel layout : L R C LFE Ls Rs
Sampling rate : 48.0 kHz
Frame rate : 31.250 FPS (1536 SPF)
Compression mode : Lossy
Stream size : 432 MiB (14%)
Title : European Spanish
Language : Spanish
Service kind : Complete Main
Default : No
Forced : No

Audio #2
ID : 3
Format : E-AC-3
Format/Info : Enhanced AC-3
Commercial name : Dolby Digital Plus
Codec ID : A_EAC3
Duration : 1 h 34 min
Bit rate mode : Constant
Bit rate : 640 kb/s
Channel(s) : 6 channels
Channel layout : L R C LFE Ls Rs
Sampling rate : 48.0 kHz
Frame rate : 31.250 FPS (1536 SPF)
Compression mode : Lossy
Stream size : 432 MiB (14%)
Language : English
Service kind : Complete Main
Default : Yes
Forced : No

Text #1
ID : 4
Format : UTF-8
Codec ID : S_TEXT/UTF8
Codec ID/Info : UTF-8 Plain Text
Duration : 1 h 29 min
Bit rate : 3 b/s
Count of elements : 65
Stream size : 2.03 KiB (0%)
Title : Forced
Language : English
Default : Yes
Forced : Yes

Text #2
ID : 5
Format : UTF-8
Codec ID : S_TEXT/UTF8
Codec ID/Info : UTF-8 Plain Text
Duration : 1 h 29 min
Bit rate : 29 b/s
Count of elements : 714
Stream size : 19.3 KiB (0%)
Language : English
Default : No
Forced : No

Text #3
ID : 6
Format : UTF-8
Codec ID : S_TEXT/UTF8
Codec ID/Info : UTF-8 Plain Text
Duration : 1 h 30 min
Bit rate : 45 b/s
Count of elements : 1206
Stream size : 30.0 KiB (0%)
Title : SDH
Language : English
Default : No
Forced : No

Text #4
ID : 7
Format : UTF-8
Codec ID : S_TEXT/UTF8
Codec ID/Info : UTF-8 Plain Text
Duration : 1 h 30 min
Bit rate : 40 b/s
Count of elements : 957
Stream size : 26.5 KiB (0%)
Title : European (SDH)
Language : Spanish
Default : No
Forced : No

Text #5
ID : 8
Format : UTF-8
Codec ID : S_TEXT/UTF8
Codec ID/Info : UTF-8 Plain Text
Duration : 1 h 29 min
Bit rate : 48 b/s
Count of elements : 709
Stream size : 32.0 KiB (0%)
Language : Arabic
Default : No
Forced : No

Text #6
ID : 9
Format : UTF-8
Codec ID : S_TEXT/UTF8
Codec ID/Info : UTF-8 Plain Text
Duration : 1 h 29 min
Bit rate : 28 b/s
Count of elements : 710
Stream size : 18.8 KiB (0%)
Language : Czech
Default : No
Forced : No

Text #7
ID : 10
Format : UTF-8
Codec ID : S_TEXT/UTF8
Codec ID/Info : UTF-8 Plain Text
Duration : 1 h 27 min
Bit rate : 24 b/s
Count of elements : 680
Stream size : 15.4 KiB (0%)
Language : Danish
Default : No
Forced : No

Text #8
ID : 11
Format : UTF-8
Codec ID : S_TEXT/UTF8
Codec ID/Info : UTF-8 Plain Text
Duration : 1 h 33 min
Bit rate : 27 b/s
Count of elements : 706
Stream size : 19.2 KiB (0%)
Language : German
Default : No
Forced : No

Text #9
ID : 12
Format : UTF-8
Codec ID : S_TEXT/UTF8
Codec ID/Info : UTF-8 Plain Text
Duration : 1 h 29 min
Bit rate : 47 b/s
Count of elements : 713
Stream size : 31.0 KiB (0%)
Language : Greek
Default : No
Forced : No

Text #10
ID : 13
Format : UTF-8
Codec ID : S_TEXT/UTF8
Codec ID/Info : UTF-8 Plain Text
Duration : 1 h 16 min
Bit rate : 1 b/s
Count of elements : 29
Stream size : 971 Bytes (0%)
Title : European (Forced)
Language : Spanish
Default : No
Forced : No

Text #11
ID : 14
Format : UTF-8
Codec ID : S_TEXT/UTF8
Codec ID/Info : UTF-8 Plain Text
Duration : 1 h 28 min
Bit rate : 26 b/s
Count of elements : 699
Stream size : 17.5 KiB (0%)
Language : Finnish
Default : No
Forced : No

Text #12
ID : 15
Format : UTF-8
Codec ID : S_TEXT/UTF8
Codec ID/Info : UTF-8 Plain Text
Duration : 1 h 29 min
Bit rate : 24 b/s
Count of elements : 676
Stream size : 16.2 KiB (0%)
Language : French
Default : No
Forced : No

Text #13
ID : 16
Format : UTF-8
Codec ID : S_TEXT/UTF8
Codec ID/Info : UTF-8 Plain Text
Duration : 1 h 33 min
Bit rate : 42 b/s
Count of elements : 720
Stream size : 29.1 KiB (0%)
Language : Hebrew
Default : No
Forced : No

Text #14
ID : 17
Format : UTF-8
Codec ID : S_TEXT/UTF8
Codec ID/Info : UTF-8 Plain Text
Duration : 1 h 29 min
Bit rate : 27 b/s
Count of elements : 717
Stream size : 17.8 KiB (0%)
Language : Hungarian
Default : No
Forced : No

Text #15
ID : 18
Format : UTF-8
Codec ID : S_TEXT/UTF8
Codec ID/Info : UTF-8 Plain Text
Duration : 1 h 33 min
Bit rate : 27 b/s
Count of elements : 722
Stream size : 18.7 KiB (0%)
Language : Indonesian
Default : No
Forced : No

Text #16
ID : 19
Format : UTF-8
Codec ID : S_TEXT/UTF8
Codec ID/Info : UTF-8 Plain Text
Duration : 1 h 29 min
Bit rate : 28 b/s
Count of elements : 721
Stream size : 18.4 KiB (0%)
Language : Italian
Default : No
Forced : No

Text #17
ID : 20
Format : UTF-8
Codec ID : S_TEXT/UTF8
Codec ID/Info : UTF-8 Plain Text
Duration : 1 h 33 min
Bit rate : 25 b/s
Count of elements : 757
Stream size : 17.6 KiB (0%)
Language : Japanese
Default : No
Forced : No

Text #18
ID : 21
Format : UTF-8
Codec ID : S_TEXT/UTF8
Codec ID/Info : UTF-8 Plain Text
Duration : 1 h 29 min
Bit rate : 34 b/s
Count of elements : 728
Stream size : 22.8 KiB (0%)
Language : Korean
Default : No
Forced : No

Text #19
ID : 22
Format : UTF-8
Codec ID : S_TEXT/UTF8
Codec ID/Info : UTF-8 Plain Text
Duration : 1 h 29 min
Bit rate : 27 b/s
Count of elements : 725
Stream size : 17.9 KiB (0%)
Language : Norwegian Bokmal
Default : No
Forced : No

Text #20
ID : 23
Format : UTF-8
Codec ID : S_TEXT/UTF8
Codec ID/Info : UTF-8 Plain Text
Duration : 1 h 29 min
Bit rate : 26 b/s
Count of elements : 668
Stream size : 17.4 KiB (0%)
Language : Dutch
Default : No
Forced : No

Text #21
ID : 24
Format : UTF-8
Codec ID : S_TEXT/UTF8
Codec ID/Info : UTF-8 Plain Text
Duration : 1 h 33 min
Bit rate : 24 b/s
Count of elements : 734
Stream size : 16.7 KiB (0%)
Language : Polish
Default : No
Forced : No

Text #22
ID : 25
Format : UTF-8
Codec ID : S_TEXT/UTF8
Codec ID/Info : UTF-8 Plain Text
Duration : 1 h 29 min
Bit rate : 29 b/s
Count of elements : 724
Stream size : 19.1 KiB (0%)
Title : European
Language : Portuguese
Default : No
Forced : No

Text #23
ID : 26
Format : UTF-8
Codec ID : S_TEXT/UTF8
Codec ID/Info : UTF-8 Plain Text
Duration : 1 h 33 min
Bit rate : 27 b/s
Count of elements : 713
Stream size : 18.5 KiB (0%)
Title : Brazilian
Language : Portuguese
Default : No
Forced : No

Text #24
ID : 27
Format : UTF-8
Codec ID : S_TEXT/UTF8
Codec ID/Info : UTF-8 Plain Text
Duration : 1 h 30 min
Bit rate : 30 b/s
Count of elements : 702
Stream size : 20.2 KiB (0%)
Language : Romanian
Default : No
Forced : No

Text #25
ID : 28
Format : UTF-8
Codec ID : S_TEXT/UTF8
Codec ID/Info : UTF-8 Plain Text
Duration : 1 h 29 min
Bit rate : 44 b/s
Count of elements : 702
Stream size : 29.2 KiB (0%)
Language : Russian
Default : No
Forced : No

Text #26
ID : 29
Format : UTF-8
Codec ID : S_TEXT/UTF8
Codec ID/Info : UTF-8 Plain Text
Duration : 1 h 29 min
Bit rate : 29 b/s
Count of elements : 720
Stream size : 19.2 KiB (0%)
Language : Swedish
Default : No
Forced : No

Text #27
ID : 30
Format : UTF-8
Codec ID : S_TEXT/UTF8
Codec ID/Info : UTF-8 Plain Text
Duration : 1 h 29 min
Bit rate : 73 b/s
Count of elements : 730
Stream size : 47.9 KiB (0%)
Language : Thai
Default : No
Forced : No

Text #28
ID : 31
Format : UTF-8
Codec ID : S_TEXT/UTF8
Codec ID/Info : UTF-8 Plain Text
Duration : 1 h 29 min
Bit rate : 28 b/s
Count of elements : 725
Stream size : 18.8 KiB (0%)
Language : Turkish
Default : No
Forced : No

Text #29
ID : 32
Format : UTF-8
Codec ID : S_TEXT/UTF8
Codec ID/Info : UTF-8 Plain Text
Duration : 1 h 29 min
Bit rate : 40 b/s
Count of elements : 699
Stream size : 26.6 KiB (0%)
Language : Vietnamese
Default : No
Forced : No

Text #30
ID : 33
Format : UTF-8
Codec ID : S_TEXT/UTF8
Codec ID/Info : UTF-8 Plain Text
Duration : 1 h 33 min
Bit rate : 27 b/s
Count of elements : 728
Stream size : 18.6 KiB (0%)
Title : Simplified
Language : Chinese
Default : No
Forced : No

Text #31
ID : 34
Format : UTF-8
Codec ID : S_TEXT/UTF8
Codec ID/Info : UTF-8 Plain Text
Duration : 1 h 29 min
Bit rate : 30 b/s
Count of elements : 730
Stream size : 19.6 KiB (0%)
Title : Traditional
Language : Chinese
Default : No
Forced : No





1 个附件 售价 大小 下载 时间

The.Paramedic.2020.SPANISH.1080p.NF.WEBRip.DDP5.1.x264-PTP.zip 0 金币 30.57K 196 次 6天前

#1楼
发帖时间:2020-09-17 10:33:04   |   回复数:0
游客组