squallzhao
武林盟主

[2014] [欧美] [其他] [BD-1080P] 乐高积木世界 Beyond.the.Brick.A.LEGO.Brickumentary.2014.1080p.BluRay.x264-PSYCHD 6.56G

-->

帖子完整标题:乐高积木世界 Beyond.the.Brick.A.LEGO.Brickumentary.2014.1080p.BluRay.x264-PSYCHD 6.56GB



◎译  名 乐高积木世界
◎片  名 Beyond the Brick: A LEGO Brickumentary
◎年  代 2014
◎产  地 美国
◎类  别 纪录片
◎语  言 英语
◎上映日期 2015-07-31(北美)
◎IMDb评分 6.8/10 from 1852 users
◎IMDb链接 https://www.imdb.com/title/tt3214286/
◎豆瓣评分 8.5/10 from 460 users
◎豆瓣链接 https://movie.douban.com/subject/25897206/
◎片  长 95分钟
◎导  演 基夫·戴维森 Kief Davidson / 丹尼尔·扬格 Daniel Junge
◎编  剧 丹尼尔·扬格 Daniel Junge / 戴维斯·库姆贝 Davis Coombe / 基夫·戴维森 Kief Davidson
◎主  演 杰森·贝特曼 Jason Bateman

◎标  签 纪录片 | LEGO | 美国 | 乐高 | 2014 | Documentary | 2015 | 美国电影

◎简  介

  The first ever Lego documentary, Beyond The Brick: A Lego Brickumentary, premiered earlier this year at the Tribeca Film Festival. Fresh off the hype and success of The Lego Movie, the film garnered very strong reviews and has now been picked up for worldwide distribution by RADiUS. Jason Bateman narrates and Daniel Junge and Kief Davidson direct.

Video
ID : 1
Format : AVC
Format/Info : Advanced Video Codec
Format profile : [email protected]
Format settings : CABAC / 4 Ref Frames
Format settings, CABAC : Yes
Format settings, Reference frames : 4 frames
Codec ID : V_MPEG4/ISO/AVC
Duration : 1 h 32 min
Bit rate : 8 629 kb/s
Width : 1 920 pixels
Height : 1 080 pixels
Display aspect ratio : 16:9
Frame rate mode : Constant
Frame rate : 23.976 (24000/1001/189150) FPS
Color space : YUV
Chroma subsampling : 4:2:0
Bit depth : 8 bits
Scan type : Progressive
Bits/(Pixel*Frame) : 0.174
Stream size : 5.45 GiB (83%)
Writing library : x264 core 148 r2638 7599210
Encoding settings : cabac=1 / ref=4 / deblock=1:-3:-3 / analyse=0x3:0x113 / me=umh / subme=8 / psy=1 / psy_rd=1.00:0.00 / mixed_ref=1 / me_range=16 / chroma_me=1 / trellis=1 / 8x8dct=1 / cqm=0 / deadzone=21,11 / fast_pskip=1 / chroma_qp_offset=-2 / threads=24 / lookahead_threads=4 / sliced_threads=0 / nr=0 / decimate=1 / interlaced=0 / bluray_compat=0 / constrained_intra=0 / bframes=3 / b_pyramid=2 / b_adapt=2 / b_bias=0 / direct=3 / weightb=1 / open_gop=0 / weightp=2 / keyint=240 / keyint_min=24 / scenecut=40 / intra_refresh=0 / rc_lookahead=50 / rc=2pass / mbtree=1 / bitrate=8629 / ratetol=1.0 / qcomp=0.60 / qpmin=0 / qpmax=69 / qpstep=4 / cplxblur=20.0 / qblur=0.5 / ip_ratio=1.40 / aq=1:1.00
Language : English
Default : Yes
Forced : No
Statistics Tags Issue : no_variable_data 1970-01-01 00:00:00 / no_variable_data 2010-02-22 21:41:29
FromStats_BitRate : 8625030
FromStats_Duration : 01:32:35.717000000
FromStats_FrameCount : 133204
FromStats_StreamSize : 5989778732

Audio
ID : 2
Format : DTS
Format/Info : Digital Theater Systems
Codec ID : A_DTS
Duration : 1 h 32 min
Bit rate mode : Constant
Bit rate : 1 509 kb/s
Channel(s) : 6 channels
Channel layout : C L R Ls Rs LFE
Sampling rate : 48.0 kHz
Frame rate : 93.750 FPS (512 SPF)
Bit depth : 24 bits
Compression mode : Lossy
Stream size : 999 MiB (15%)
Language : English
Default : Yes
Forced : No
Statistics Tags Issue : no_variable_data 1970-01-01 00:00:00 / no_variable_data 2010-02-22 21:41:29
FromStats_BitRate : 1508999
FromStats_Duration : 01:32:34.710000000
FromStats_FrameCount : 520754
FromStats_StreamSize : 1047757048

Text #1
ID : 3
Format : UTF-8
Codec ID : S_TEXT/UTF8
Codec ID/Info : UTF-8 Plain Text
Title : Forced
Language : English
Default : Yes
Forced : Yes
Statistics Tags Issue : no_variable_data 1970-01-01 00:00:00 / no_variable_data 2010-02-22 21:41:29
FromStats_BitRate : 4
FromStats_Duration : 01:01:55.502000000
FromStats_FrameCount : 52
FromStats_StreamSize : 2304

Text #2
ID : 4
Format : UTF-8
Codec ID : S_TEXT/UTF8
Codec ID/Info : UTF-8 Plain Text
Language : English
Default : No
Forced : No
Statistics Tags Issue : no_variable_data 1970-01-01 00:00:00 / no_variable_data 2010-02-22 21:41:29
FromStats_BitRate : 109
FromStats_Duration : 01:29:14.056000000
FromStats_FrameCount : 1646
FromStats_StreamSize : 73038

Text #3
ID : 5
Format : UTF-8
Codec ID : S_TEXT/UTF8
Codec ID/Info : UTF-8 Plain Text
Title : SDH
Language : English
Default : No
Forced : No
Statistics Tags Issue : no_variable_data 1970-01-01 00:00:00 / no_variable_data 2010-02-22 21:41:29
FromStats_BitRate : 110
FromStats_Duration : 01:29:14.056000000
FromStats_FrameCount : 1672
FromStats_StreamSize : 73795

Menu
00:00:00.000 : en:00:00:00.000
00:03:43.557 : en:00:03:43.557
00:07:40.210 : en:00:07:40.210
00:12:43.054 : en:00:12:43.054
00:18:17.138 : en:00:18:17.138
00:23:03.424 : en:00:23:03.424
00:30:33.999 : en:00:30:33.999
00:34:47.377 : en:00:34:47.377
00:38:24.802 : en:00:38:24.802
00:45:18.341 : en:00:45:18.341
00:49:33.179 : en:00:49:33.179
00:55:24.488 : en:00:55:24.488
01:03:11.997 : en:01:03:11.997
01:09:51.771 : en:01:09:51.771
01:16:30.836 : en:01:16:30.836
01:18:53.145 : en:01:18:53.145
01:24:41.618 : en:01:24:41.618
01:29:16.059 : en:01:29:16.059





1 个附件 售价 大小 下载 时间

Beyond.the.Brick.A.LEGO.Brickumentary.2014.1080p.BluRay.x264-PSYCHD.zip 0 金币 67.07K 133 次 6天前

#1楼
发帖时间:2020-09-17 10:37:38   |   回复数:0
游客组