squallzhao
武林盟主

[2014] [其他] [其他] [BD-1080P] 第四公民/四号公民 Citizenfour.2014.LIMITED.1080p.BluRay.x264-PSYCHD 7.94GB

-->

帖子完整标题:第四公民/四号公民 Citizenfour.2014.LIMITED.1080p.BluRay.x264-PSYCHD 7.94GB



◎译  名 第四公民/四号公民
◎片  名 Citizenfour
◎年  代 2014
◎产  地 美国,德国,英国
◎类  别 纪录片 / 传记
◎语  言 英语,葡萄牙语,德语
◎上映日期 2014-10-10(纽约电影节) / 2014-10-24(美国)
◎IMDb评分 8/10 from 51408 users
◎IMDb链接 https://www.imdb.com/title/tt4044364/
◎豆瓣评分 8.4/10 from 21428 users
◎豆瓣链接 https://movie.douban.com/subject/26059437/
◎片  长 114分钟
◎导  演 劳拉·珀特拉斯 Laura Poitras
◎主  演 爱德华·斯诺登 Edward Snowden
      朱利安·阿桑奇 Julian Assange
      杰里米·斯卡希尔 Jeremy Scahill
      威廉·宾尼 William Binney
      雅各布·阿佩尔鲍姆 Jacob Appelbaum
      伊文·麦克阿斯基尔 Ewen MacAskill
      格兰·格林沃德 Glenn Greenwald
      巴拉克·奥巴马 Barack Obama

◎标  签 纪录片 | 美国 | 政治 | EdwardSnowden | 2014 | 传记 | 德国 | Documentary

◎简  介

  《第四公民》将能高度还原“棱镜门”事件始末,为观众真实揭秘身处漩涡中心的爱德华·斯诺登。
  
  纪录片导演柏翠丝本人也是“棱镜门”事件的核心人物,正是在她和《卫报》记者格仑·格林沃德的协助下,斯诺登才得以将美国国家安全局的监控丑闻公之于众。而柏翠丝与格林沃德也因此荣获普利策奖。片名“第四公民”(citizen four)正是斯诺登早期与柏翠丝邮件沟通时使用的匿名代号。2013年6月,当柏翠丝第一次飞往香港与斯诺登见面的时候,她随身携带的摄像机也真实记录了当时的场景。《第四公民》将能高度还原“棱镜门”事件始末,为观众真实揭秘身处漩涡中心的爱德华·斯诺登。

◎获奖情况

  第87届奥斯卡金像奖 ?(2015)
  最佳纪录长片 德克·维卢茨基?/?玛蒂尔德·鲍尼福伊?/?劳拉·珀特拉斯
  
  第67届美国导演工会奖 ?(2015)
  最佳纪录片导演 劳拉·珀特拉斯
  
  第80届纽约影评人协会奖 ?(2014)
  最佳纪录片
  最佳纪录片(提名)
  
  第30届美国独立精神奖 ?(2015)
  最佳纪录片 德克·维卢茨基?/?玛蒂尔德·鲍尼福伊?/?劳拉·珀特拉斯
  
  第24届哥谭独立电影奖 ?(2014)
  最佳纪录片 萨拉·伯恩斯坦?/?德克·维卢茨基?/?玛蒂尔德·鲍尼福伊?/?劳拉·珀特拉斯
  
  第13届华盛顿影评人协会奖 ?(2014)
  最佳纪录片(提名)
  
  第35届波士顿影评人协会奖 ?(2014)
  最佳纪录片
  
  第40届洛杉矶影评人协会奖 ?(2014)
  最佳纪录片 劳拉·珀特拉斯
  
  第27届芝加哥影评人协会奖 ?(2014)
  最佳纪录片(提名)
  
  第18届美国在线影评人协会奖 ?(2014)
  最佳纪录片(提名)
  
  第5届豆瓣电影鑫像奖 ?(2015)
  鑫豆单元最佳纪录长片

Video
ID : 1
Format : AVC
Format/Info : Advanced Video Codec
Format profile : [email protected]
Format settings : CABAC / 4 Ref Frames
Format settings, CABAC : Yes
Format settings, Reference frames : 4 frames
Codec ID : V_MPEG4/ISO/AVC
Duration : 1 h 53 min
Bit rate : 8 510 kb/s
Width : 1 920 pixels
Height : 1 080 pixels
Display aspect ratio : 16:9
Frame rate mode : Constant
Frame rate : 23.976 (24000/1001/189150) FPS
Color space : YUV
Chroma subsampling : 4:2:0
Bit depth : 8 bits
Scan type : Progressive
Bits/(Pixel*Frame) : 0.171
Stream size : 6.74 GiB (85%)
Writing library : x264 core 148 r2579 73ae2d1
Encoding settings : cabac=1 / ref=4 / deblock=1:-3:-3 / analyse=0x3:0x113 / me=umh / subme=8 / psy=1 / psy_rd=1.00:0.00 / mixed_ref=1 / me_range=16 / chroma_me=1 / trellis=1 / 8x8dct=1 / cqm=0 / deadzone=21,11 / fast_pskip=1 / chroma_qp_offset=-2 / threads=24 / lookahead_threads=4 / sliced_threads=0 / nr=0 / decimate=1 / interlaced=0 / bluray_compat=0 / constrained_intra=0 / bframes=3 / b_pyramid=2 / b_adapt=2 / b_bias=0 / direct=3 / weightb=1 / open_gop=0 / weightp=2 / keyint=240 / keyint_min=24 / scenecut=40 / intra_refresh=0 / rc_lookahead=50 / rc=2pass / mbtree=1 / bitrate=8510 / ratetol=1.0 / qcomp=0.60 / qpmin=0 / qpmax=69 / qpstep=4 / cplxblur=20.0 / qblur=0.5 / ip_ratio=1.40 / aq=1:1.00
Language : English
Default : Yes
Forced : No

Audio
ID : 2
Format : DTS
Format/Info : Digital Theater Systems
Codec ID : A_DTS
Duration : 1 h 53 min
Bit rate mode : Constant
Bit rate : 1 509 kb/s
Channel(s) : 6 channels
Channel layout : C L R Ls Rs LFE
Sampling rate : 48.0 kHz
Frame rate : 93.750 FPS (512 SPF)
Bit depth : 24 bits
Compression mode : Lossy
Stream size : 1.20 GiB (15%)
Language : English
Default : Yes
Forced : No

Text #1
ID : 3
Format : UTF-8
Codec ID : S_TEXT/UTF8
Codec ID/Info : UTF-8 Plain Text
Duration : 27 min 5 s
Bit rate : 26 b/s
Count of elements : 128
Stream size : 5.32 KiB (0%)
Title : Forced
Language : English
Default : Yes
Forced : Yes

Text #2
ID : 4
Format : UTF-8
Codec ID : S_TEXT/UTF8
Codec ID/Info : UTF-8 Plain Text
Duration : 1 h 49 min
Bit rate : 94 b/s
Count of elements : 1814
Stream size : 75.7 KiB (0%)
Language : English
Default : No
Forced : No

Text #3
ID : 5
Format : UTF-8
Codec ID : S_TEXT/UTF8
Codec ID/Info : UTF-8 Plain Text
Duration : 1 h 49 min
Bit rate : 98 b/s
Count of elements : 1853
Stream size : 78.6 KiB (0%)
Title : SDH
Language : English
Default : No
Forced : No

Menu
00:00:00.000 : en:00:00:00.000
00:05:27.827 : en:00:05:27.827
00:12:07.852 : en:00:12:07.852
00:20:58.716 : en:00:20:58.716
00:27:41.076 : en:00:27:41.076
00:35:22.287 : en:00:35:22.287
00:44:17.280 : en:00:44:17.280
00:52:36.737 : en:00:52:36.737
01:01:36.359 : en:01:01:36.359
01:08:40.491 : en:01:08:40.491
01:15:32.778 : en:01:15:32.778
01:21:11.992 : en:01:21:11.992
01:30:01.855 : en:01:30:01.855
01:34:51.769 : en:01:34:51.769
01:42:47.328 : en:01:42:47.328
01:50:19.905 : en:01:50:19.905





1 个附件 售价 大小 下载 时间

Citizenfour.2014.LIMITED.1080p.BluRay.x264-PSYCHD.zip 0 金币 80.88K 133 次 7天前

#1楼
发帖时间:2020-09-17 10:37:58   |   回复数:0
游客组