squallzhao
武林盟主

[更 早] [欧美] [喜剧] [BD-1080P] 法网/天罗地网 Dragnet.1987.1080p.BluRay.x264-PSYCHD 8.74GB

-->

帖子完整标题:法网/天罗地网 Dragnet.1987.1080p.BluRay.x264-PSYCHD 8.74GB



◎译  名 法网/天罗地网/妙探孖宝/警网/警网擒凶
◎片  名 Dragnet
◎年  代 1987
◎产  地 美国
◎类  别 喜剧 / 犯罪
◎语  言 英语
◎上映日期 1987-06-26
◎IMDb评分 6/10 from 31279 users
◎IMDb链接 https://www.imdb.com/title/tt0092925/
◎豆瓣评分 6.8/10 from 71 users
◎豆瓣链接 https://movie.douban.com/subject/1295337/
◎片  长 106 分钟
◎导  演 汤姆·曼凯维奇 Tom Mankiewicz
◎编  剧 汤姆·曼凯维奇 Tom Mankiewicz
◎主  演 彼得·艾克罗伊德 Peter Aykroyd
      汤姆·汉克斯 Tom Hanks
      梅格·怀利 Meg Wyllie

◎标  签 汤姆·汉克斯 | 喜剧 | TomHanks | 美国 | 犯罪 | 1980s | 电影 | 美国电影

◎简  介

  美国洛杉矶发生了一桩命案,罪犯在现场留下一张署名为“反对美德和常态的人”的名片,侦探乔·弗赖戴和斯特雷贝克负责调查此案。根据掌握的线索,他们将马兹抓获,从其口中得知是西泽将他安插在一个叫PAGAN的组织中。在该组织举行的一次秘密聚会上,一个头戴面具的牧师将一个穿着结婚礼服的处女当作祭品推入了有蟒蛇的池塘,弗赖戴和斯特雷贝克将她救了出来。这个叫康尼的女子是被“消灭恶习和罪恶的十字军”领袖、牧师乔纳森·沃利绑架来的。弗赖戴将沃利抓了起来,但脾气暴躁的女警长柯克帕特里克对此大为光火,她命令弗赖戴将沃利释放,还让他交出了警徽。马兹抓住了弗赖戴和康尼,斯特雷贝克将他们救了出来。沃利企图杀死西泽、市长和柯克帕特里特,他的阴谋被弗赖戴和斯特雷贝克所粉碎。为了逃跑,沃利将康尼当作人质,但弗赖戴又一次使他的如意算盘落了空,并最终赢得了康尼的芳心。

Video
ID : 1
Format : AVC
Format/Info : Advanced Video Codec
Format profile : [email protected]
Format settings : CABAC / 4 Ref Frames
Format settings, CABAC : Yes
Format settings, Reference frames : 4 frames
Codec ID : V_MPEG4/ISO/AVC
Duration : 1 h 45 min
Bit rate : 11.6 Mb/s
Width : 1 920 pixels
Height : 1 040 pixels
Display aspect ratio : 1.85:1
Frame rate mode : Constant
Frame rate : 23.976 (24000/1001/189150) FPS
Color space : YUV
Chroma subsampling : 4:2:0
Bit depth : 8 bits
Scan type : Progressive
Bits/(Pixel*Frame) : 0.243
Stream size : 8.42 GiB (96%)
Writing library : x264 core 148 r2692 64f4e24
Encoding settings : cabac=1 / ref=4 / deblock=1:-3:-3 / analyse=0x3:0x113 / me=umh / subme=8 / psy=1 / psy_rd=1.12:0.00 / mixed_ref=1 / me_range=32 / chroma_me=1 / trellis=1 / 8x8dct=1 / cqm=0 / deadzone=21,11 / fast_pskip=1 / chroma_qp_offset=-2 / threads=24 / lookahead_threads=4 / sliced_threads=0 / nr=0 / decimate=1 / interlaced=0 / bluray_compat=0 / constrained_intra=0 / bframes=3 / b_pyramid=2 / b_adapt=2 / b_bias=0 / direct=3 / weightb=1 / open_gop=0 / weightp=2 / keyint=240 / keyint_min=24 / scenecut=40 / intra_refresh=0 / rc_lookahead=50 / rc=2pass / mbtree=1 / bitrate=11635 / ratetol=1.0 / qcomp=0.60 / qpmin=0 / qpmax=69 / qpstep=4 / cplxblur=20.0 / qblur=0.5 / ip_ratio=1.40 / aq=3:0.80
Default : Yes
Forced : No
Statistics Tags Issue : no_variable_data 1970-01-01 00:00:00 / no_variable_data 2010-02-22 21:41:29
FromStats_BitRate : 11630078
FromStats_Duration : 01:45:49.594000000
FromStats_FrameCount : 152238
FromStats_StreamSize : 9230784744

Audio
ID : 2
Format : AC-3
Format/Info : Audio Coding 3
Commercial name : Dolby Digital
Codec ID : A_AC3
Duration : 1 h 45 min
Bit rate mode : Constant
Bit rate : 192 kb/s
Channel(s) : 2 channels
Channel layout : L R
Sampling rate : 48.0 kHz
Frame rate : 31.250 FPS (1536 SPF)
Compression mode : Lossy
Stream size : 145 MiB (2%)
Language : English
Service kind : Complete Main
Default : Yes
Forced : No
Statistics Tags Issue : no_variable_data 1970-01-01 00:00:00 / no_variable_data 2010-02-22 21:41:29
FromStats_BitRate : 192000
FromStats_Duration : 01:45:49.536000000
FromStats_FrameCount : 198423
FromStats_StreamSize : 152388864

Menu
00:00:00.000 : en:00:00:00.000
00:00:00.375 : en:00:00:00.375
00:17:51.070 : en:00:17:51.070
00:32:17.769 : en:00:32:17.769
00:52:25.225 : en:00:52:25.225
01:12:29.178 : en:01:12:29.178
01:30:30.759 : en:01:30:30.759





1 个附件 售价 大小 下载 时间

Dragnet.1987.1080p.BluRay.x264-PSYCHD.zip 0 金币 88.81K 77 次 6天前

#1楼
发帖时间:2020-09-17 10:41:29   |   回复数:0
游客组