travismk
一代宗师

[2020] [欧美] [剧情] [WEB-1080P] 神弃之地/恶魔每时每刻 The.Devil.All.the.Time.2020.1080p.WEBRip.x264-RARBG 2.65GB

-->

帖子完整标题:神弃之地/恶魔每时每刻 The.Devil.All.the.Time.2020.1080p.WEBRip.x264-RARBG 2.65GB



◎译  名 神弃之地/恶魔每时每刻
◎片  名 The Devil All the Time
◎年  代 2020
◎产  地 美国
◎类  别 剧情 / 惊悚
◎语  言 英语
◎上映日期 2020-09-16(美国网络)
◎IMDb评分 8.3/10 from 68 users
◎IMDb链接 https://www.imdb.com/title/tt7395114/
◎豆瓣评分 6.8/10 from 637 users
◎豆瓣链接 https://movie.douban.com/subject/27194336/
◎片  长 138分钟
◎导  演 安东尼奥·坎波斯 Antonio Campos
◎编  剧 安东尼奥·坎波斯 Antonio Campos / 保罗·坎波斯 Paulo Campos / 唐纳德·雷·波洛克 Donald Ray Pollock
◎主  演 汤姆·赫兰德 Tom Holland
      罗伯特·帕丁森 Robert Pattinson
      比尔·斯卡斯加德 Bill Skarsg?rd
      海莉·贝内特 Haley Bennett
      丽莉·吉欧 Riley Keough
      哈利·米尔林 Harry Melling
      塞巴斯蒂安·斯坦 Sebastian Stan
      米娅·华希科沃斯卡 Mia Wasikowska
      伊莱扎·斯坎伦 Eliza Scanlen
      杰森·克拉克 Jason Clarke
      道格拉斯·霍奇斯 Douglas Hodges
      德鲁·斯塔基 Drew Starkey
      吉文·夏普 Given Sharp
      露西·浮士德 Lucy Faust
      艾比·格洛弗 Abby Glover
      克里斯汀格里菲斯 Kristin Griffith
      亚当·弗里斯托 Adam Fristoe
      大卫·马尔登那多 David Maldonado
      莫甘娜·布里吉尔斯 Morganna Bridgers
      马克·杰弗里·米勒 Mark Jeffrey Miller
      迈克尔·哈丁 Michael Harding
      唐纳德·雷·波洛克 Donald Ray Pollock
      格雷戈瑞·凯利 Gregory Kelly
      科里·斯科特·艾伦 Cory Scott Allen
      凯莱布·J·塔格德 Caleb J. Thaggard
      Phillip DeVona

◎标  签 美国 | 犯罪 | 惊悚 | 2020 | 剧情 | 改编 | 悬疑 | Netflix

◎简  介

  该片是一部中西部哥特风电影,安东尼奥·坎帕斯(《克里斯汀》)执导,讲述俄亥俄州偏远之地Knockemstiff,男主角Willard Russell绝望地想拯救濒死的妻子,不惜屈服于牺牲,而他的儿子(霍兰德)正从一个在学校被虐待的孩子成长为知道何时出手的男人,角色包括一对连环杀手夫妇、一个考验人的信仰的传教士、一个腐败的当地警长(斯坦)。时间从二战末期到1960年代,地点从南俄亥俄州乡村到西维吉尼亚。

Video
ID : 1
Format : AVC
Format/Info : Advanced Video Codec
Format profile : [email protected]
Format settings : CABAC / 4 Ref Frames
Format settings, CABAC : Yes
Format settings, Reference frames : 4 frames
Codec ID : avc1
Codec ID/Info : Advanced Video Coding
Duration : 2 h 18 min
Bit rate : 2 500 kb/s
Width : 1 920 pixels
Height : 804 pixels
Display aspect ratio : 2.40:1
Frame rate mode : Constant
Frame rate : 24.000 FPS
Color space : YUV
Chroma subsampling : 4:2:0
Bit depth : 8 bits
Scan type : Progressive
Bits/(Pixel*Frame) : 0.067
Stream size : 2.42 GiB (92%)
Writing library : x264 core 152 r2851M ba24899
Encoding settings : cabac=1 / ref=4 / deblock=1:-1:-1 / analyse=0x3:0x113 / me=umh / subme=9 / psy=1 / psy_rd=1.00:0.15 / mixed_ref=1 / me_range=24 / chroma_me=1 / trellis=2 / 8x8dct=1 / cqm=0 / deadzone=21,11 / fast_pskip=1 / chroma_qp_offset=-3 / threads=16 / lookahead_threads=4 / sliced_threads=0 / nr=0 / decimate=1 / interlaced=0 / bluray_compat=0 / constrained_intra=0 / bframes=3 / b_pyramid=2 / b_adapt=2 / b_bias=0 / direct=3 / weightb=1 / open_gop=0 / weightp=2 / keyint=250 / keyint_min=25 / scenecut=40 / intra_refresh=0 / rc_lookahead=50 / rc=2pass / mbtree=1 / bitrate=2500 / ratetol=1.0 / qcomp=0.60 / qpmin=0 / qpmax=69 / qpstep=4 / cplxblur=20.0 / qblur=0.5 / vbv_maxrate=31250 / vbv_bufsize=31250 / nal_hrd=none / filler=0 / ip_ratio=1.40 / aq=3:1.00
Encoded date : UTC 2020-09-16 07:01:50
Tagged date : UTC 2020-09-16 07:01:50
Codec configuration box : avcC

Audio
ID : 2
Format : AAC LC
Format/Info : Advanced Audio Codec Low Complexity
Codec ID : mp4a-40-2
Duration : 2 h 18 min
Duration_LastFrame : -11 ms
Bit rate mode : Constant
Bit rate : 224 kb/s
Channel(s) : 6 channels
Channel layout : C L R Ls Rs LFE
Sampling rate : 48.0 kHz
Frame rate : 46.875 FPS (1024 SPF)
Compression mode : Lossy
Stream size : 223 MiB (8%)
Language : English
Default : Yes
Alternate group : 1
Encoded date : UTC 2020-09-16 07:01:50
Tagged date : UTC 2020-09-16 07:01:50





1 个附件 售价 大小 下载 时间

The.Devil.All.the.Time.2020.1080p.WEBRip.x264-RARBG.zip 0 金币 27.66K 854 次 7天前

#1楼
发帖时间:2020-09-17 10:43:50   |   回复数:0
游客组