squallzhao
武林盟主

[2013] [欧美] [其他] [BD-1080P] 耶路撒冷 Jerusalem.2013.1080p.BluRay.x264-PSYCHD 4.37GB

-->

帖子完整标题:耶路撒冷 Jerusalem.2013.1080p.BluRay.x264-PSYCHD 4.37GB



◎译  名 耶路撒冷
◎片  名 Jerusalem
◎年  代 2013
◎产  地 美国/加拿大
◎类  别 纪录片
◎语  言 英语
◎上映日期 
◎IMDb评分 7.3/10 from 1144 users
◎IMDb链接 https://www.imdb.com/title/tt2385006/
◎豆瓣评分 8.4/10 from 2482 users
◎豆瓣链接 https://movie.douban.com/subject/24379816/
◎片  长 45分钟
◎导  演 丹尼尔·弗格森 Daniel Ferguson
◎编  剧 丹尼尔·弗格森 Daniel Ferguson
◎主  演 本尼迪克特·康伯巴奇 Benedict Cumberbatch

◎标  签 纪录片 | 耶路撒冷 | 宗教 | BBC | 美国 | BenedictCumberbatch | 2013 | 英国

◎简  介

  JERUSALEM takes audiences on an inspiring and eye-opening tour of one of the worlds oldest and most enigmatic cities. Destroyed and rebuilt countless times over 5000 years, Jerusalems enduring appeal remains a mystery. What made it so important to so many different cultures? How did it become the center of the world for three major religions? Why does it still matter to us?
  
  JERUSALEM attempts to answer these questions by following three young Jerusalemites and their families Jewish, Christian and Muslim. Through their eyes, audiences will learn what it means to call Jerusalem home, and experience celebrations and events that mark the high points of a year in the life of the city.
  
  JERUSALEM will also follow archaeologists, Dr. Jodi Magness and Dr. Nazmi al-Jubeh, as they explore some of the most extraordinary historical sites in the region in order to better understand this crossroads of civilization.
  
  JERUSALEM seeks to build trust and respect between Jews, Christians and Muslims by showcasing their common heritage and inspiring them, and the public, to better understand each other. Audiences will gain a completely unique perspective of a part of the world that captivates the imagination of billions of people.
  
  JERUSALEM's producers include multiple Oscar winner, Jake Eberts (Gandhi, Dances With Wolves, The Killing Fields), and Taran Davies (Journey to Mecca), and George Duffield (The End of the Line). Daniel Ferguson (Lost Worlds, Wired to Win: Surviving the Tour de France) is writer, director and producer. Dominic Cunningham Reid (Journey to Mecca) is executive producer.

Video
ID : 1
Format : AVC
Format/Info : Advanced Video Codec
Format profile : [email protected]
Format settings : CABAC / 4 Ref Frames
Format settings, CABAC : Yes
Format settings, Reference frames : 4 frames
Codec ID : V_MPEG4/ISO/AVC
Duration : 44 min 15 s
Bit rate : 12.6 Mb/s
Width : 1 920 pixels
Height : 1 080 pixels
Display aspect ratio : 16:9
Frame rate mode : Constant
Frame rate : 23.976 (24000/1001/189150) FPS
Color space : YUV
Chroma subsampling : 4:2:0
Bit depth : 8 bits
Scan type : Progressive
Bits/(Pixel*Frame) : 0.254
Stream size : 3.81 GiB (87%)
Writing library : x264 core 148 r2638 7599210
Encoding settings : cabac=1 / ref=4 / deblock=1:-3:-3 / analyse=0x3:0x113 / me=umh / subme=8 / psy=1 / psy_rd=1.00:0.00 / mixed_ref=1 / me_range=16 / chroma_me=1 / trellis=1 / 8x8dct=1 / cqm=0 / deadzone=21,11 / fast_pskip=1 / chroma_qp_offset=-2 / threads=24 / lookahead_threads=4 / sliced_threads=0 / nr=0 / decimate=1 / interlaced=0 / bluray_compat=0 / constrained_intra=0 / bframes=3 / b_pyramid=2 / b_adapt=2 / b_bias=0 / direct=3 / weightb=1 / open_gop=0 / weightp=2 / keyint=240 / keyint_min=24 / scenecut=40 / intra_refresh=0 / rc_lookahead=50 / rc=2pass / mbtree=1 / bitrate=12618 / ratetol=1.0 / qcomp=0.60 / qpmin=0 / qpmax=69 / qpstep=4 / cplxblur=20.0 / qblur=0.5 / ip_ratio=1.40 / aq=1:1.00
Language : English
Default : Yes
Forced : No
Statistics Tags Issue : no_variable_data 1970-01-01 00:00:00 / no_variable_data 2010-02-22 21:41:29
FromStats_BitRate : 12614047
FromStats_Duration : 00:44:15.695000000
FromStats_FrameCount : 63673
FromStats_StreamSize : 4187382752

Audio
ID : 2
Format : DTS
Format/Info : Digital Theater Systems
Codec ID : A_DTS
Duration : 44 min 15 s
Bit rate mode : Constant
Bit rate : 1 509 kb/s
Channel(s) : 6 channels
Channel layout : C L R Ls Rs LFE
Sampling rate : 48.0 kHz
Frame rate : 93.750 FPS (512 SPF)
Bit depth : 24 bits
Compression mode : Lossy
Stream size : 478 MiB (11%)
Language : English
Default : Yes
Forced : No
Statistics Tags Issue : no_variable_data 1970-01-01 00:00:00 / no_variable_data 2010-02-22 21:41:29
FromStats_BitRate : 1508999
FromStats_Duration : 00:44:15.702000000
FromStats_FrameCount : 248972
FromStats_StreamSize : 500931664

Text
ID : 3
Format : UTF-8
Codec ID : S_TEXT/UTF8
Codec ID/Info : UTF-8 Plain Text
Language : English
Default : No
Forced : No
Statistics Tags Issue : no_variable_data 1970-01-01 00:00:00 / no_variable_data 2010-02-22 21:41:29
FromStats_BitRate : 44
FromStats_Duration : 00:40:46.276000000
FromStats_FrameCount : 288
FromStats_StreamSize : 13725

Menu
00:00:00.000 : en:00:00:00.000
00:03:25.163 : en:00:03:25.163
00:09:23.062 : en:00:09:23.062
00:12:34.379 : en:00:12:34.379
00:17:20.331 : en:00:17:20.331
00:22:58.127 : en:00:22:58.127
00:29:17.839 : en:00:29:17.839
00:36:36.778 : en:00:36:36.778
00:39:16.521 : en:00:39:16.521
00:42:11.154 : en:00:42:11.154





1 个附件 售价 大小 下载 时间

Jerusalem.2013.1080p.BluRay.x264-PSYCHD.zip 0 金币 88.76K 189 次 7天前

#1楼
发帖时间:2020-09-17 10:45:36   |   回复数:0
游客组