squallzhao
武林盟主

[更 早] [其他] [喜剧] [BD-1080P] 反斗神偷/寄居大侠 The.Borrowers.1997.1080p.BluRay.x264-PSYCHD 8.74GB

-->

帖子完整标题:反斗神偷/寄居大侠 The.Borrowers.1997.1080p.BluRay.x264-PSYCHD 8.74GB



◎译  名 反斗神偷/寄居大侠/寄居游侠
◎片  名 The Borrowers
◎年  代 1997
◎产  地 英国,美国
◎类  别 喜剧 / 家庭 / 奇幻
◎语  言 英语
◎上映日期 1997-12-05
◎IMDb评分 5.9/10 from 19578 users
◎IMDb链接 https://www.imdb.com/title/tt0118755/
◎豆瓣评分 7.9/10 from 1432 users
◎豆瓣链接 https://movie.douban.com/subject/1300506/
◎片  长 89 分钟
◎导  演 彼得·休伊特 Peter Hewitt
◎编  剧 加文·斯科特 Gavin Scott / 约翰·坎普斯 John Kamps / 玛丽·诺顿 Mary Norton
◎主  演 约翰·古德曼 John Goodman
      吉姆·布劳德本特 Jim Broadbent
      西莉亚·伊姆里 Celia Imrie
      弗洛拉·纽比金 Flora Newbigin
      汤姆·费尔顿 Tom Felton
      雷蒙德·皮卡德 Raymond Pickard
      布莱德利·皮尔斯 Bradley Pierce
      亚丁·吉勒特 Aden Gillett
      马克·威廉姆斯 Mark Williams
      休·劳瑞 Hugh Laurie
      David Freeman
      卢比·瓦克斯 Ruby Wax
      童自荣 Zirong Tong
      亚历克斯·温特 Alex Winter
      帕特里克·蒙克顿 Patrick Monckton

◎标  签 喜剧 | 英国 | 奇幻 | 儿童 | 借物小精灵 | 美国 | TomFelton | 1997

◎简  介

  在波特家的地板缝里,居住着波德一家人,波德一族天生拥有着迷你的身材,靠着寄宿在人类家中,向人类借生活必备品维生。这一天,皮特(布莱德利·皮尔斯 Bradley Pierce 饰)向往常一样告别了父母前往学校,而他的父母也双双出门了,整个大房子成为了波德一家人的天下。
  
  这一次,波德(约翰·古德曼 John Goodman 饰)带上了儿子皮特林(汤姆·费尔顿 Tom Felton 饰)和女儿阿列艾迪(弗洛拉·纽比金 Flora Newbigin 饰),那晓得皮特林在偷冰淇淋的时候却被误打误撞的关进了冰箱里。好巧不巧,波特家的主人在这个节骨眼上回家了,面临这前所未有的危机,波德会做出怎样的反应呢?

Video
ID : 1
Format : AVC
Format/Info : Advanced Video Codec
Format profile : [email protected]
Format settings : CABAC / 4 Ref Frames
Format settings, CABAC : Yes
Format settings, Reference frames : 4 frames
Codec ID : V_MPEG4/ISO/AVC
Duration : 1 h 26 min
Bit rate : 12.9 Mb/s
Width : 1 920 pixels
Height : 1 040 pixels
Display aspect ratio : 1.85:1
Frame rate mode : Constant
Frame rate : 23.976 (24000/1001/189150) FPS
Color space : YUV
Chroma subsampling : 4:2:0
Bit depth : 8 bits
Scan type : Progressive
Bits/(Pixel*Frame) : 0.269
Stream size : 7.65 GiB (88%)
Writing library : x264 core 148 r2692 64f4e24
Encoding settings : cabac=1 / ref=4 / deblock=1:-3:-3 / analyse=0x3:0x113 / me=umh / subme=8 / psy=1 / psy_rd=1.15:0.00 / mixed_ref=1 / me_range=32 / chroma_me=1 / trellis=1 / 8x8dct=1 / cqm=0 / deadzone=21,11 / fast_pskip=1 / chroma_qp_offset=-2 / threads=24 / lookahead_threads=4 / sliced_threads=0 / nr=0 / decimate=1 / interlaced=0 / bluray_compat=0 / constrained_intra=0 / bframes=3 / b_pyramid=2 / b_adapt=2 / b_bias=0 / direct=3 / weightb=1 / open_gop=0 / weightp=2 / keyint=240 / keyint_min=24 / scenecut=40 / intra_refresh=0 / rc_lookahead=50 / rc=2pass / mbtree=1 / bitrate=12885 / ratetol=1.0 / qcomp=0.60 / qpmin=0 / qpmax=69 / qpstep=4 / cplxblur=20.0 / qblur=0.5 / ip_ratio=1.40 / aq=3:0.80
Default : Yes
Forced : No
Statistics Tags Issue : no_variable_data 1970-01-01 00:00:00 / no_variable_data 2010-02-22 21:41:29
FromStats_BitRate : 12881898
FromStats_Duration : 01:26:57.755000000
FromStats_FrameCount : 125101
FromStats_StreamSize : 8401823674

Audio
ID : 2
Format : DTS
Format/Info : Digital Theater Systems
Codec ID : A_DTS
Duration : 1 h 26 min
Bit rate mode : Constant
Bit rate : 1 509 kb/s
Channel(s) : 2 channels
Channel layout : L R
Sampling rate : 48.0 kHz
Frame rate : 93.750 FPS (512 SPF)
Bit depth : 24 bits
Compression mode : Lossy
Stream size : 939 MiB (10%)
Language : English
Default : Yes
Forced : No
Statistics Tags Issue : no_variable_data 1970-01-01 00:00:00 / no_variable_data 2010-02-22 21:41:29
FromStats_BitRate : 1508999
FromStats_Duration : 01:26:57.718000000
FromStats_FrameCount : 489161
FromStats_StreamSize : 984191932

Menu
00:00:00.000 : en:00:00:00.000
00:06:18.420 : en:00:06:18.420
00:13:03.408 : en:00:13:03.408
00:19:36.175 : en:00:19:36.175
00:27:40.158 : en:00:27:40.158
00:34:43.623 : en:00:34:43.623
00:45:56.545 : en:00:45:56.545
00:56:09.366 : en:00:56:09.366
01:03:17.335 : en:01:03:17.335
01:09:11.481 : en:01:09:11.481
01:19:26.470 : en:01:19:26.470
01:22:09.341 : en:01:22:09.341





1 个附件 售价 大小 下载 时间

The.Borrowers.1997.1080p.BluRay.x264-PSYCHD.zip 0 金币 88.87K 112 次 7天前

#1楼
发帖时间:2020-09-17 10:48:58   |   回复数:0
游客组