squallzhao
武林盟主

[更 早] [欧美] [惊悚] [BD-1080P] 刀锋冷/血雨梨花 Criminal.Law.1988.1080p.BluRay.x264-PSYCHD 10.93GB

-->

帖子完整标题:刀锋冷/血雨梨花 Criminal.Law.1988.1080p.BluRay.x264-PSYCHD 10.93GB



◎译  名 刀锋冷/血雨梨花
◎片  名 Criminal Law
◎年  代 1988
◎产  地 美国
◎类  别 惊悚
◎语  言 英语
◎上映日期 1988-09-15(多伦多电影节) / 1989-04-28(美国)
◎IMDb评分 5.7/10 from 3497 users
◎IMDb链接 https://www.imdb.com/title/tt0097125/
◎豆瓣评分 6.8/10 from 108 users
◎豆瓣链接 https://movie.douban.com/subject/1301742/
◎片  长 117分钟
◎导  演 马丁·坎贝尔 Martin Campbell
◎主  演 加里·奥德曼 Gary Oldman
      凯文·贝肯 Kevin Bacon
      理查德·朱特拉斯 Richard Jutras
      艾丹·迪瓦恩 Aidan Devine
      泰丝·哈珀 Tess Harper
      Michael Sinelnikoff
      伊丽莎白·谢波德 Elizabeth Shepherd
      肖恩·麦卡恩 Sean McCann
      Ali Giron
      凯伦·杨 Karen Young
      乔·唐·巴克 Joe Don Baker

◎标  签 GaryOldman | 美国 | 犯罪 | KevinBacon | 美国电影 | 加里·奥德曼 | 惊悚 | Gary_Oldman

◎简  介

  《犯罪本色》讲述一名律师成功为被告凶手脱罪,他为了证明被告的清白,甚至不惜破坏目击证人的名声,但他最后竟发现,被告不但有罪,还打算东山再起。

Video
ID : 1
Format : AVC
Format/Info : Advanced Video Codec
Format profile : [email protected]
Format settings : CABAC / 4 Ref Frames
Format settings, CABAC : Yes
Format settings, Reference frames : 4 frames
Codec ID : V_MPEG4/ISO/AVC
Duration : 1 h 53 min
Bit rate : 12.2 Mb/s
Width : 1 920 pixels
Height : 1 040 pixels
Display aspect ratio : 1.85:1
Frame rate mode : Constant
Frame rate : 23.976 (24000/1001/189150) FPS
Color space : YUV
Chroma subsampling : 4:2:0
Bit depth : 8 bits
Scan type : Progressive
Bits/(Pixel*Frame) : 0.256
Stream size : 9.51 GiB (87%)
Writing library : x264 core 148 r2744 b97ae06
Encoding settings : cabac=1 / ref=4 / deblock=1:-3:-3 / analyse=0x3:0x113 / me=umh / subme=8 / psy=1 / psy_rd=1.15:0.00 / mixed_ref=1 / me_range=32 / chroma_me=1 / trellis=1 / 8x8dct=1 / cqm=0 / deadzone=21,11 / fast_pskip=1 / chroma_qp_offset=-2 / threads=6 / lookahead_threads=1 / sliced_threads=0 / nr=0 / decimate=1 / interlaced=0 / bluray_compat=0 / constrained_intra=0 / bframes=3 / b_pyramid=2 / b_adapt=2 / b_bias=0 / direct=3 / weightb=1 / open_gop=0 / weightp=2 / keyint=240 / keyint_min=24 / scenecut=40 / intra_refresh=0 / rc_lookahead=50 / rc=2pass / mbtree=1 / bitrate=12235 / ratetol=1.0 / qcomp=0.60 / qpmin=0 / qpmax=69 / qpstep=4 / cplxblur=20.0 / qblur=0.5 / ip_ratio=1.40 / aq=3:0.70
Default : Yes
Forced : No
Statistics Tags Issue : no_variable_data 1970-01-01 00:00:00 / no_variable_data 2010-02-22 21:41:29
FromStats_BitRate : 12233041
FromStats_Duration : 01:53:51.367000000
FromStats_FrameCount : 163789
FromStats_StreamSize : 10446049372

Audio
ID : 2
Format : DTS
Format/Info : Digital Theater Systems
Codec ID : A_DTS
Duration : 1 h 53 min
Bit rate mode : Constant
Bit rate : 1 509 kb/s
Channel(s) : 2 channels
Channel layout : L R
Sampling rate : 48.0 kHz
Frame rate : 93.750 FPS (512 SPF)
Bit depth : 24 bits
Compression mode : Lossy
Stream size : 1.20 GiB (11%)
Language : English
Default : Yes
Forced : No
Statistics Tags Issue : no_variable_data 1970-01-01 00:00:00 / no_variable_data 2010-02-22 21:41:29
FromStats_BitRate : 1509000
FromStats_Duration : 01:53:50.848000000
FromStats_FrameCount : 640392
FromStats_StreamSize : 1288468704

Menu
00:00:00.000 : en:00:00:00.000
00:13:04.784 : en:00:13:04.784
00:28:43.722 : en:00:28:43.722
00:44:14.652 : en:00:44:14.652
00:58:24.501 : en:00:58:24.501
01:12:37.687 : en:01:12:37.687
01:27:53.268 : en:01:27:53.268
01:42:18.132 : en:01:42:18.132





1 个附件 售价 大小 下载 时间

Criminal.Law.1988.1080p.BluRay.x264-PSYCHD.zip 0 金币 56.09K 105 次 6天前

#1楼
发帖时间:2020-09-17 10:50:30   |   回复数:0
游客组