travismk
一代宗师

[2015] [欧美] [动作] [WEB-1080P] 谜之大厦/平行宇宙 Parallels.2015.1080p.AMZN.WEBRip.DDP5.1.x264-ABM 7.38GB

-->

帖子完整标题:谜之大厦/平行宇宙 Parallels.2015.1080p.AMZN.WEBRip.DDP5.1.x264-ABM 7.38GB



◎译  名 谜之大厦/平行宇宙/建筑
◎片  名 Parallels
◎年  代 2015
◎产  地 美国
◎类  别 动作 / 科幻
◎语  言 英语
◎上映日期 2015-03-01(美国)
◎IMDb评分 6.1/10 from 13552 users
◎IMDb链接 https://www.imdb.com/title/tt3479316/
◎豆瓣评分 6.2/10 from 3408 users
◎豆瓣链接 https://movie.douban.com/subject/26356473/
◎片  长 83分钟
◎导  演 Christopher Leone
◎编  剧 Christopher Leone
◎主  演 马克·哈普卡 Mark Hapka
      杰西卡·罗德 Jessica Rothe
      埃里克·蒋曼 Eric Jungmann
      吴恬敏 Constance Wu
      约戈·康斯坦丁 Yorgo Constantine
      戴维·杰 Davi Jay
      Michael Monks
      马科·圣约翰 Marco St. John
      卢克·霍克斯 Luke Hawx
      金·柯林斯 Kim Collins
      伊恩·卡塞尔伯里 Ian Casselberry

◎标  签 科幻 | 美国 | 平行世界 | 悬疑 | 2015 | 穿越 | 美国电影 | 电影

◎简  介

  这影片原是Fox拍摄的一部美剧的试播集,但FOX最终决定将其拍摄为为一部80分钟的电影在netflix上首映。作为电影可能挖了太多天坑,但一个男人通过一座神秘建筑进入无限的平行宇宙,遇到无限个的自己的故事很绝。

Video
ID : 1
Format : AVC
Format/Info : Advanced Video Codec
Format profile : [email protected]
Format settings : CABAC / 4 Ref Frames
Format settings, CABAC : Yes
Format settings, Reference frames : 4 frames
Codec ID : V_MPEG4/ISO/AVC
Duration : 1 h 23 min
Bit rate mode : Variable
Bit rate : 11.8 Mb/s
Maximum bit rate : 15.0 Mb/s
Width : 1 920 pixels
Height : 1 080 pixels
Display aspect ratio : 16:9
Frame rate mode : Constant
Frame rate : 23.976 (24000/1001/189150) FPS
Color space : YUV
Chroma subsampling : 4:2:0
Bit depth : 8 bits
Scan type : Progressive
Bits/(Pixel*Frame) : 0.237
Stream size : 6.86 GiB (93%)
Writing library : x264 core 148 r2623 d5b2374
Encoding settings : cabac=1 / ref=4 / deblock=1:-1:-1 / analyse=0x3:0x133 / me=umh / subme=9 / psy=1 / psy_rd=1.00:0.15 / mixed_ref=1 / me_range=24 / chroma_me=1 / trellis=2 / 8x8dct=1 / cqm=0 / deadzone=21,11 / fast_pskip=1 / chroma_qp_offset=-3 / threads=34 / lookahead_threads=5 / sliced_threads=0 / nr=150 / decimate=1 / interlaced=0 / bluray_compat=0 / constrained_intra=0 / bframes=8 / b_pyramid=2 / b_adapt=2 / b_bias=0 / direct=3 / weightb=1 / open_gop=0 / weightp=2 / keyint=120 / keyint_min=61 / scenecut=0 / intra_refresh=0 / rc_lookahead=120 / rc=crf / mbtree=1 / crf=18.0 / qcomp=0.60 / qpmin=0 / qpmax=69 / qpstep=4 / vbv_maxrate=15000 / vbv_bufsize=31250 / crf_max=0.0 / nal_hrd=vbr / filler=0 / ip_ratio=1.40 / aq=3:1.00
Language : English
Default : Yes
Forced : No
Color range : Limited
Color primaries : BT.709
Transfer characteristics : BT.709
Matrix coefficients : BT.709

Audio
ID : 2
Format : E-AC-3
Format/Info : Enhanced AC-3
Commercial name : Dolby Digital Plus
Codec ID : A_EAC3
Duration : 1 h 23 min
Bit rate mode : Constant
Bit rate : 640 kb/s
Channel(s) : 6 channels
Channel layout : L R C LFE Ls Rs
Sampling rate : 48.0 kHz
Frame rate : 31.250 FPS (1536 SPF)
Compression mode : Lossy
Stream size : 382 MiB (5%)
Language : English
Service kind : Complete Main
Default : Yes
Forced : No

Text
ID : 3
Format : UTF-8
Codec ID : S_TEXT/UTF8
Codec ID/Info : UTF-8 Plain Text
Language : English
Default : No
Forced : No





1 个附件 售价 大小 下载 时间

Parallels.2015.1080p.AMZN.WEBRip.DDP5.1.x264-ABM.zip 0 金币 37.96K 203 次 6天前

#1楼
发帖时间:2020-09-17 10:50:50   |   回复数:0
游客组