travismk
一代宗师

[2019] [其他] [剧情] [WEB-1080P] 夕雾花园/夕霧花園 The.Garden.of.Evening.Mists.2019.1080p.NF.WEBRip.DDP5.1.x264-NOGRP 2.8

-->

帖子完整标题:夕雾花园/夕霧花園 The.Garden.of.Evening.Mists.2019.1080p.NF.WEBRip.DDP5.1.x264-NOGRP 2.80GB



◎译  名 夕雾花园/夕霧花園
◎片  名 The Garden of Evening Mists
◎年  代 2019
◎产  地 马来西亚,英国
◎类  别 剧情 / 历史
◎语  言 英语,粤语,日语,马来语
◎上映日期 2019-10-04(釜山国际电影节) / 2019-11-29(中国台湾)
◎IMDb评分 7.2/10 from 356 users
◎IMDb链接 https://www.imdb.com/title/tt8434152/
◎豆瓣评分 7.1/10 from 2913 users
◎豆瓣链接 https://movie.douban.com/subject/30238379/
◎片  长 120分钟
◎导  演 林书宇 Tom Lin
◎编  剧 理查德·史密斯 Richard Smith / 陈团英 Tan Twan Eng
◎主  演 李心洁 Angelica Lee
      阿部宽 Hiroshi Abe
      张艾嘉 Sylvia Chang
      大卫·奥克斯 David Oakes
      朱利安·山德斯 Julian Sands
      约翰·汉纳 John Hannah
      林宣妤 Serene Lim
      陈琼华 Kheng Hua Tan
      谢振刚 Fish Chaar
      Naeim Ghalili
      吕爱琼 Aye Keng Loo

◎标  签 马来西亚 | 台湾 | 张艾嘉 | 李心洁 | 阿部宽 | 2019 | 台湾电影 | 林书宇

◎简  介

  电影将以上世纪1950和1980年代的双时间轴呈现,故事以张云林(张艾嘉饰)为核心开始,观众将看到以倒叙手法回忆1950年代年轻的张云林(李心洁饰)在二次世界大战后的生活。妹妹张云红(林宣妤饰)的过世使张云林陷入罪恶感之中,此时,她也遇见了日本籍园艺师中村有朋(阿部宽饰),协助她打造纪念花园,并开启一段揪心的爱情故事。

Video
ID : 1
Format : AVC
Format/Info : Advanced Video Codec
Format profile : [email protected]
Format settings : CABAC / 4 Ref Frames
Format settings, CABAC : Yes
Format settings, Reference frames : 4 frames
Codec ID : V_MPEG4/ISO/AVC
Duration : 1 h 55 min
Bit rate : 3 300 kb/s
Width : 1 920 pixels
Height : 1 080 pixels
Display aspect ratio : 16:9
Frame rate mode : Constant
Frame rate : 25.000 FPS
Color space : YUV
Chroma subsampling : 4:2:0
Bit depth : 8 bits
Scan type : Progressive
Bits/(Pixel*Frame) : 0.064
Stream size : 2.65 GiB (94%)
Writing library : x264 core 155 r2917 0a84d98
Encoding settings : cabac=1 / ref=4 / deblock=1:-1:-1 / analyse=0x3:0x113 / me=hex / subme=8 / psy=1 / psy_rd=1.00:0.15 / mixed_ref=1 / me_range=16 / chroma_me=1 / trellis=2 / 8x8dct=1 / cqm=0 / deadzone=21,11 / fast_pskip=1 / chroma_qp_offset=-3 / threads=12 / lookahead_threads=2 / sliced_threads=0 / nr=0 / decimate=1 / interlaced=0 / bluray_compat=0 / constrained_intra=0 / bframes=3 / b_pyramid=2 / b_adapt=2 / b_bias=0 / direct=3 / weightb=1 / open_gop=0 / weightp=2 / keyint=50 / keyint_min=26 / scenecut=0 / intra_refresh=0 / rc_lookahead=50 / rc=2pass / mbtree=1 / bitrate=3300 / ratetol=1.0 / qcomp=0.60 / qpmin=0 / qpmax=69 / qpstep=4 / cplxblur=20.0 / qblur=0.5 / vbv_maxrate=4620 / vbv_bufsize=6600 / nal_hrd=none / filler=0 / ip_ratio=1.40 / aq=3:1.00
Default : Yes
Forced : No
Color range : Limited
Color primaries : BT.709
Transfer characteristics : BT.709
Matrix coefficients : BT.709

Audio
ID : 2
Format : E-AC-3
Format/Info : Enhanced AC-3
Commercial name : Dolby Digital Plus
Codec ID : A_EAC3
Duration : 1 h 55 min
Bit rate mode : Constant
Bit rate : 192 kb/s
Channel(s) : 6 channels
Channel layout : L R C LFE Ls Rs
Sampling rate : 48.0 kHz
Frame rate : 31.250 FPS (1536 SPF)
Compression mode : Lossy
Stream size : 158 MiB (6%)
Language : English
Service kind : Complete Main
Default : Yes
Forced : No

Text
ID : 3
Format : UTF-8
Codec ID : S_TEXT/UTF8
Codec ID/Info : UTF-8 Plain Text
Duration : 1 h 46 min
Bit rate : 33 b/s
Count of elements : 1175
Stream size : 26.2 KiB (0%)
Language : English
Default : Yes
Forced : No





1 个附件 售价 大小 下载 时间

The.Garden.of.Evening.Mists.2019.1080p.NF.WEBRip.DDP5.1.x264-NOGRP.zip 0 金币 29.52K 805 次 9天前

#1楼
发帖时间:2020-10-17 22:52:00   |   回复数:0
游客组