squallzhao
武林盟主

[2013] [日本] [剧情] [BD-1080P] 寻访千利休 Ask.This.of.Rikyu.2013.JAPANESE.1080p.BluRay.x264-WiKi 8.08GB

-->

帖子完整标题:寻访千利休 Ask.This.of.Rikyu.2013.JAPANESE.1080p.BluRay.x264-WiKi 8.08GB



◎译  名 寻访千利休/Ask This of Rikyu/一代茶圣千利休(台)/寻访利休
◎片  名 利休にたずねよ
◎年  代 2013
◎产  地 日本
◎类  别 剧情 / 古装
◎语  言 日语
◎上映日期 2013-12-07(日本)
◎IMDb评分 6.9/10 from 171 users
◎IMDb链接 https://www.imdb.com/title/tt2500392/
◎豆瓣评分 8.1/10 from 5977 users
◎豆瓣链接 https://movie.douban.com/subject/20284873/
◎片  长 123分钟
◎导  演 田中光敏 Mitsutoshi Tanaka
◎编  剧 小松江里子 Eriko Nimatsu / 山本兼一 Ken'ichi Yamamoto
◎主  演 市川海老藏 Ebiz? Ichikawa
      中谷美纪 Miki Nakatani
      伊势谷友介 Y?suke Iseya
      大森南朋 Nao Omori
      福士诚治 Seiji Fukushi
      檀丽 Rei Dan
      柄本明 Akira Emoto
      袴田吉彦 Yoshihiko Hakamada
      伊武雅刀 Masat? Ibu
      川野直辉 Naoki Kawano
      黑谷友香 Tomoka Kurotani
      中村贺津雄 Katsuo Nakamura
      李成敏 Clara Lee
      守殿爱生 Manase Moridono
      大谷直子 Naoko ?tani
      成海璃子 Riko Narumi

◎标  签 日本 | 茶道 | 千利休 | 传记 | 历史 | 文艺 | 文化 | 2013

◎简  介

  16世纪末4月的一天,暴雨浸淫下的京都,某座并不起眼的宅邸内,一代名流的人生正走向尽头。房屋的主人乃是举世尊奉的茶道宗师千利休(市川海老藏 饰),遥想当年,他在战国乱世得到了织田信长(伊势谷友介 饰)的赏识,并曾以其影响力救助了命悬一线的羽柴秀吉(大森南朋 饰)。英雄霸业烟消云散,秀吉成为新一代枭雄,却渐渐不满利休那种对美毫不妥协的追求以及对强权的漠然蔑视。本不该有交集的二人,裂痕愈来愈大,这似乎也注定了利休的悲剧。
  
  生命将逝,在妻子宗恩(中谷美纪 饰)的陪伴和问询下,利休回忆起往昔的岁月,以及年轻时代那段令他刻骨铭心并左右命运的恋事……

◎获奖情况

  第37届日本电影学院奖 ?(2014)
  最佳影片(提名)
  最佳男主角(提名) 市川海老藏
  最佳女配角(提名) 中谷美纪
  最佳配乐(提名) 岩代太郎
  最佳摄影(提名) 浜田毅
  最佳美术指导 吉田孝
  最佳照明(提名) 安藤清人
  最佳录音(提名) 松阴信彦
  最佳剪辑(提名) 藤田和延
  
  第37届蒙特利尔世界电影节 ?(2013)
  美洲大奖(提名) 田中光敏
  最佳艺术贡献 田中光敏

Format : Matroska
Format version : Version 4 / Version 2
File size : 7.98 GiB
Duration : 2h 3mn
Overall bit rate : 9 240 Kbps
Movie name : Jubowo @ WiKi
Encoded date : UTC 2014-08-04 12:48:55
Writing application : mkvmerge v6.8.0 (\'Theme for Great Cities\') 64bit built on Mar 2 2014 21:34:26
Writing library : libebml v1.3.0 + libmatroska v1.4.1
Attachment : Yes / Yes / Yes / Yes

Video
ID : 1
Format : AVC
Format/Info : Advanced Video Codec
Format profile : [email protected]
Format settings, CABAC : Yes
Format settings, ReFrames : 5 frames
Codec ID : V_MPEG4/ISO/AVC
Duration : 2h 3mn
Bit rate : 8 568 Kbps
Width : 1 920 pixels
Height : 802 pixels
Display aspect ratio : 2.40:1
Frame rate mode : Constant
Frame rate : 23.976 fps
Color space : YUV
Chroma subsampling : 4:2:0
Bit depth : 8 bits
Scan type : Progressive
Bits/(Pixel*Frame) : 0.232
Stream size : 7.26 GiB (91%)
Writing library : x264 core 129 r2245+704+36 8e61944 tMod+MixAQ [[email protected]:2:0 X86_64]
Encoding settings : cabac=1 / ref=5 / deblock=1:-3:-3 / analyse=0x3:0x133 / me=umh / subme=11 / psy=1 / fade_compensate=0.00 / psy_rd=1.05:0.10 / mixed_ref=1 / me_range=64 / chroma_me=1 / trellis=2 / 8x8dct=1 / cqm=0 / deadzone=21,11 / fast_pskip=0 / chroma_qp_offset=-3 / threads=18 / lookahead_threads=3 / sliced_threads=0 / nr=0 / decimate=0 / interlaced=0 / bluray_compat=0 / constrained_intra=0 / fgo=0 / bframes=8 / b_pyramid=2 / b_adapt=2 / b_bias=0 / direct=3 / weightb=1 / open_gop=0 / weightp=2 / keyint=250 / keyint_min=23 / scenecut=40 / intra_refresh=0 / rc_lookahead=80 / rc=2pass / mbtree=1 / bitrate=8568 / ratetol=1.0 / qcomp=0.70 / qpmin=0 / qpmax=69 / qpstep=4 / cplxblur=20.0 / qblur=0.5 / ip_ratio=1.40 / aq=3 / aq-strength=0.85 / aq-sensitivity=10.00 / aq-ifactor=1.00 / aq-pfactor=1.00 / aq-bfactor=1.00 / aq2=0
Language : Japanese
Default : Yes
Forced : No

Audio
ID : 2
Format : AC-3
Format/Info : Audio Coding 3
Mode extension : CM (complete main)
Format settings, Endianness : Big
Codec ID : A_AC3
Duration : 2h 3mn
Bit rate mode : Constant
Bit rate : 640 Kbps
Channel(s) : 6 channels
Channel positions : Front: L C R, Side: L R, LFE
Sampling rate : 48.0 KHz
Bit depth : 16 bits
Compression mode : Lossy
Stream size : 566 MiB (7%)
Language : Japanese
Default : Yes
Forced : No

Text #1
ID : 3
Format : ASS
Codec ID : S_TEXT/ASS
Codec ID/Info : Advanced Sub Station Alpha
Compression mode : Lossless
Title : Simplified
Language : Chinese
Default : Yes
Forced : No

Text #2
ID : 4
Format : ASS
Codec ID : S_TEXT/ASS
Codec ID/Info : Advanced Sub Station Alpha
Compression mode : Lossless
Title : Traditional
Language : Chinese
Default : No
Forced : No

Menu
00:00:00.000 : en:00:00:00.000
00:12:22.199 : en:00:12:22.199
00:17:25.127 : en:00:17:25.127
00:23:12.891 : en:00:23:12.891
00:34:59.514 : en:00:34:59.514
00:41:25.483 : en:00:41:25.483
00:51:19.493 : en:00:51:19.493
01:03:57.333 : en:01:03:57.333
01:14:57.743 : en:01:14:57.743
01:24:34.194 : en:01:24:34.194
01:30:40.643 : en:01:30:40.643
01:38:31.030 : en:01:38:31.030
01:48:31.129 : en:01:48:31.129
01:59:18.151 : en:01:59:18.151





1 个附件 售价 大小 下载 时间

Ask.This.of.Rikyu.2013.JAPANESE.1080p.BluRay.x264-WiKi.zip 0 金币 82.41K 224 次 1天前

#1楼
发帖时间:2020-10-18 11:40:55   |   回复数:0
游客组