q3r3
武林盟主

[2016] [其他] [剧情] [BD-1080P] 离开的女人 The.Woman.Who.Left.2016.LIMITED.1080p.BluRay.x264-USURY 15.31GB

-->

帖子完整标题:离开的女人 The.Woman.Who.Left.2016.LIMITED.1080p.BluRay.x264-USURY 15.31GB



◎译  名 离开的女人/The Woman Who Left/出狱的女人/离去的女人
◎片  名 Ang Babaeng Humayo
◎年  代 2016
◎产  地 菲律宾
◎类  别 剧情
◎语  言 英语,日语,菲律宾语
◎上映日期 2016-09-09(威尼斯电影节) / 2016-09-28(菲律宾)
◎IMDb评分 7.3/10 from 1223 users
◎IMDb链接 https://www.imdb.com/title/tt5843990/
◎豆瓣评分 6.7/10 from 623 users
◎豆瓣链接 https://movie.douban.com/subject/26844993/
◎片  长 226分钟
◎导  演 拉夫·迪亚兹 Lav Diaz
◎编  剧 拉夫·迪亚兹 Lav Diaz / 列夫·托尔斯泰 Leo Tolstoy
◎主  演 切洛·桑托斯-孔奇奥 Charo Santos-Concio
      约翰·洛伊·克鲁兹 John Lloyd Cruz
      迈克尔·德·梅萨 Michael De Mesa
      诺尼·布埃诺卡米诺 Noni Buencamino
      沙梅恩·布埃诺卡米诺 Shamaine Buencamino
      梅·帕纳 Mae Paner
      梅恩·厄斯塔内罗 Mayen Estanero
      玛乔丽·洛里科 Marjorie Lorico
      劳·罗德里格斯 Lao Rodriguez
      卡凯·鲍蒂斯塔 Kakai Bautista

◎标  签 菲律宾 | 2016 | 金狮奖 | 剧情 | 女性 | 威尼斯电影节2016 | 黑白 | 亚洲

◎简  介

  赫萝西亚(切洛?桑托斯-孔奇奥 Charo Santos-Concio 饰)本是一名与世无争的老师,却因为平白无故遭到诬陷而被关进了监狱,面临着三十年的监狱生活。在这漫长的三十年即将接近尾声之时,赫萝西亚的冤屈被平凡,她被无罪释放了。原来,赫萝西亚在监狱里最好的朋友皮特罗(Shamaine Centenera 饰)承认当初正是自己诬陷了赫萝西亚。就这样,赫萝西亚重新回到了阔别已久的社会中。
  
  三十年的时间实在是太长了,这期间,许多事情都发生了翻天覆地的变化。赫萝西亚的丈夫已经去世,儿子莫名失踪,女儿背井离乡。赫萝西亚开始调查这场阴谋背后的真相,发现这一切和自己的前男友(Michael De Mesa 饰)有着千丝万缕的关联。

◎获奖情况

  第73届威尼斯电影节 ?(2016)
  主竞赛单元金狮奖 拉夫·迪亚兹
  酷儿狮奖(提名) 拉夫·迪亚兹
  
  第11届亚洲电影大奖 ?(2017)
  最佳导演(提名) 拉夫·迪亚兹
  最佳女主角(提名) 切洛·桑托斯-孔奇奥
  最佳编剧(提名) 拉夫·迪亚兹

Video
ID : 1
Format : AVC
Format/Info : Advanced Video Codec
Format profile : [email protected]
Format settings : CABAC / 4 Ref Frames
Format settings, CABAC : Yes
Format settings, Reference frames : 4 frames
Codec ID : V_MPEG4/ISO/AVC
Duration : 3 h 48 min
Bit rate : 8 067 kb/s
Width : 1 920 pixels
Height : 1 080 pixels
Display aspect ratio : 16:9
Frame rate mode : Constant
Frame rate : 23.976 (24000/1001/189150) FPS
Color space : YUV
Chroma subsampling : 4:2:0
Bit depth : 8 bits
Scan type : Progressive
Bits/(Pixel*Frame) : 0.162
Stream size : 12.9 GiB (84%)
Writing library : x264 core 155 r2901 7d0ff22
Encoding settings : cabac=1 / ref=4 / deblock=1:-3:-3 / analyse=0x3:0x133 / me=umh / subme=9 / psy=1 / psy_rd=1.00:0.00 / mixed_ref=1 / me_range=16 / chroma_me=1 / trellis=2 / 8x8dct=1 / cqm=0 / deadzone=21,11 / fast_pskip=0 / chroma_qp_offset=-2 / threads=24 / lookahead_threads=2 / sliced_threads=0 / nr=0 / decimate=1 / interlaced=0 / bluray_compat=0 / constrained_intra=0 / bframes=3 / b_pyramid=2 / b_adapt=1 / b_bias=0 / direct=3 / weightb=1 / open_gop=0 / weightp=2 / keyint=240 / keyint_min=24 / scenecut=40 / intra_refresh=0 / rc_lookahead=50 / rc=2pass / mbtree=1 / bitrate=8067 / ratetol=1.0 / qcomp=0.60 / qpmin=0 / qpmax=69 / qpstep=4 / cplxblur=20.0 / qblur=0.5 / ip_ratio=1.40 / aq=1:1.00
Language : English
Default : Yes
Forced : No

Audio
ID : 2
Format : DTS
Format/Info : Digital Theater Systems
Codec ID : A_DTS
Duration : 3 h 48 min
Bit rate mode : Constant
Bit rate : 1 509 kb/s
Channel(s) : 6 channels
Channel layout : C L R Ls Rs LFE
Sampling rate : 48.0 kHz
Frame rate : 93.750 FPS (512 SPF)
Bit depth : 24 bits
Compression mode : Lossy
Stream size : 2.41 GiB (16%)
Language : Tagalog
Default : Yes
Forced : No

Text
ID : 3
Format : UTF-8
Codec ID : S_TEXT/UTF8
Codec ID/Info : UTF-8 Plain Text
Duration : 3 h 43 min
Bit rate : 27 b/s
Count of elements : 1669
Stream size : 45.7 KiB (0%)
Title : English
Language : English
Default : Yes
Forced : Yes

Menu
00:00:00.000 : en:00:00:00.000
00:14:43.841 : en:00:14:43.841
00:33:31.760 : en:00:33:31.760
00:48:41.460 : en:00:48:41.460
01:09:16.277 : en:01:09:16.277
01:25:44.222 : en:01:25:44.222
01:40:15.843 : en:01:40:15.843
01:52:14.978 : en:01:52:14.978
02:02:15.036 : en:02:02:15.036
02:16:39.358 : en:02:16:39.358
02:32:51.120 : en:02:32:51.120
02:46:38.739 : en:02:46:38.739
03:09:29.316 : en:03:09:29.316
03:25:34.405 : en:03:25:34.405
03:36:17.089 : en:03:36:17.089





1 个附件 售价 大小 下载 时间

The.Woman.Who.Left.2016.LIMITED.1080p.BluRay.x264-USURY.zip 0 金币 78.05K 91 次 1天前

#1楼
发帖时间:2020-10-18 11:54:52   |   回复数:0
游客组