travismk
一代宗师

[2019] [其他] [奇幻] [BD-4K] 匹诺曹/木偶奇遇记 Pinocchio.2019.ITALIAN.2160p.BluRay.x265.10bit.SDR.DTS-HD.MA.5.1-SWTYB

-->

帖子完整标题:匹诺曹/木偶奇遇记 Pinocchio.2019.ITALIAN.2160p.BluRay.x265.10bit.SDR.DTS-HD.MA.5.1-SWTYBLZ 31.54GB



◎译  名 匹诺曹/木偶奇遇记/皮诺丘的奇幻旅程(台)
◎片  名 Pinocchio
◎年  代 2019
◎产  地 意大利,法国,英国
◎类  别 奇幻
◎语  言 意大利语
◎上映日期 2019-12-19(意大利)
◎IMDb评分 6.3/10 from 4744 users
◎IMDb链接 https://www.imdb.com/title/tt8333746/
◎豆瓣评分 6.7/10 from 5221 users
◎豆瓣链接 https://movie.douban.com/subject/26886204/
◎片  长 124分钟
◎导  演 马提欧·加洛尼 Matteo Garrone
◎编  剧 卡洛·科洛迪 Carlo Collodi / 马提欧·加洛尼 Matteo Garrone / 马西莫·切可里尼 Massimo Ceccherini
◎主  演 费德里科·伊帕迪 Federico Ielapi
      罗伯托·贝尼尼 Roberto Benigni
      罗科·帕帕莱奥 Rocco Papaleo
      马西莫·切可里尼 Massimo Ceccherini
      玛丽恩·瓦科特 Marine Vacth
      吉吉·普罗耶蒂 Gigi Proietti
      阿利达·巴尔达里·卡拉布里亚 Alida Baldari Calabria
      Alessio Di Domenicantonio
      达维德·马洛塔 Davide Marotta
      保罗·格拉齐西 Paolo Graziosi
      马西米利亚诺·加洛 Massimiliano Gallo
      詹弗兰科·加洛 Gianfranco Gallo
      特科·切里奥 Teco Celio
      尼诺?斯卡迪纳 Nino Scardina
      毛里齐奥·隆巴迪 Maurizio Lombardi
      纪尧姆·德洛内 Guillaume Delaunay
      吉格欧·莫拉 Gigio Morra
      Ciro Petrone
      Barbara Enrichi
      马尔切洛·丰特 Marcello Fonte
      马蒂尔达·德·安杰利斯 Matilda De Angelis

◎标  签 童话 | 奇幻 | 意大利 | 温情 | 意大利电影 | 改编 | 2019 | 马提欧.加洛尼

◎简  介

  意大利真人版《匹诺曹》,故事围绕一个老木匠与他雕刻的小木偶匹诺曹展开。

◎获奖情况

  第65届意大利大卫奖 ?(2020)
  最佳影片(提名)
  最佳导演(提名) 马提欧·加洛尼
  最佳改编剧本(提名) 马提欧·加洛尼?/?马西莫·切可里尼
  最佳女配角(提名) 阿利达·巴尔达里·卡拉布里亚
  最佳男配角(提名) 罗伯托·贝尼尼
  最佳摄影(提名)
  最佳音乐(提名)
  最佳美术设计
  最佳服装设计
  最佳化妆
  最佳剪辑(提名)
  最佳音效(提名)
  最佳视觉效果

Video
ID : 1
Format : HEVC
Format/Info : High Efficiency Video Coding
Format profile : Main [email protected]@High
Codec ID : V_MPEGH/ISO/HEVC
Duration : 2 h 5 min
Bit rate : 32.9 Mb/s
Width : 3 840 pixels
Height : 1 612 pixels
Display aspect ratio : 2.40:1
Frame rate mode : Constant
Frame rate : 24.000 FPS
Color space : YUV
Chroma subsampling : 4:2:0
Bit depth : 10 bits
Bits/(Pixel*Frame) : 0.222
Stream size : 28.8 GiB (92%)
Title : Pinocchio.2019.ITALIAN.2160p.BluRay.x265.10bit.SDR.DTS-HD.MA.5.1-SWTYBLZ
Writing library : x265 3.0ed72af837053:[Windows][GCC 8.2.0][64 bit] 10bit
Encoding settings : cpuid=1111039 / frame-threads=6 / numa-pools=40 / wpp / no-pmode / no-pme / no-psnr / no-ssim / log-level=2 / input-csp=1 / input-res=3840x1612 / interlace=0 / total-frames=180217 / level-idc=51 / high-tier=1 / uhd-bd=0 / ref=3 / no-allow-non-conformance / repeat-headers / annexb / aud / hrd / info / hash=0 / no-temporal-layers / no-open-gop / min-keyint=1 / keyint=24 / gop-lookahead=0 / bframes=4 / b-adapt=2 / b-pyramid / bframe-bias=0 / rc-lookahead=25 / lookahead-slices=4 / scenecut=40 / radl=0 / no-splice / no-intra-refresh / ctu=64 / min-cu-size=8 / no-rect / no-amp / max-tu-size=32 / tu-inter-depth=1 / tu-intra-depth=1 / limit-tu=0 / rdoq-level=0 / dynamic-rd=0.00 / no-ssim-rd / signhide / no-tskip / nr-intra=0 / nr-inter=0 / no-constrained-intra / strong-intra-smoothing / max-merge=2 / limit-refs=3 / no-limit-modes / me=1 / subme=2 / merange=57 / temporal-mvp / weightp / no-weightb / no-analyze-src-pics / deblock=0:0 / no-sao / no-sao-non-deblock / rd=3 / no-early-skip / rskip / no-fast-intra / no-tskip-fast / no-cu-lossless / no-b-intra / no-splitrd-skip / rdpenalty=0 / psy-rd=2.00 / psy-rdoq=0.00 / no-rd-refine / no-lossless / cbqpoffs=0 / crqpoffs=0 / rc=crf / crf=16.0 / qcomp=0.60 / qpstep=4 / stats-write=0 / stats-read=0 / vbv-maxrate=160000 / vbv-bufsize=160000 / vbv-init=0.9 / crf-max=0.0 / crf-min=0.0 / ipratio=1.40 / pbratio=1.30 / aq-mode=1 / aq-strength=1.00 / cutree / zone-count=0 / no-strict-cbr / qg-size=32 / no-rc-grain / qpmax=69 / qpmin=0 / no-const-vbv / sar=1 / overscan=0 / videoformat=5 / range=0 / colorprim=2 / transfer=2 / colormatrix=2 / chromaloc=0 / display-window=0 / max-cll=0,0 / min-luma=0 / max-luma=1023 / log2-max-poc-lsb=8 / vui-timing-info / vui-hrd-info / slices=1 / opt-qp-pps / opt-ref-list-length-pps / no-multi-pass-opt-rps / scenecut-bias=0.05 / no-opt-cu-delta-qp / no-aq-motion / no-hdr / no-hdr-opt / no-dhdr10-opt / no-idr-recovery-sei / analysis-reuse-level=5 / scale-factor=0 / refine-intra=0 / refine-inter=0 / refine-mv=0 / refine-ctu-distortion=0 / no-limit-sao / ctu-info=0 / no-lowpass-dct / refine-analysis-type=0 / copy-pic=1 / max-ausize-factor=1.0 / no-dynamic-refine / no-single-sei / no-hevc-aq / qp-adaptation-range=1.00
Default : Yes
Forced : No

Audio #1
ID : 2
ID in the original source medium : 4353 (0x1101)
Format : DTS XLL
Format/Info : Digital Theater Systems
Commercial name : DTS-HD Master Audio
Codec ID : A_DTS
Duration : 2 h 5 min
Bit rate mode : Variable
Bit rate : 2 330 kb/s
Channel(s) : 6 channels
Channel layout : C L R Ls Rs LFE
Sampling rate : 48.0 kHz
Frame rate : 93.750 FPS (512 SPF)
Bit depth : 16 bits
Compression mode : Lossless
Stream size : 2.04 GiB (6%)
Title : Pinocchio.2019.ITALIAN.2160p.BluRay.x265.10bit.SDR.DTS-HD.MA.5.1-SWTYBLZ
Language : Italian
Default : Yes
Forced : No
Original source medium : Blu-ray

Audio #2
ID : 3
Format : AC-3
Format/Info : Audio Coding 3
Commercial name : Dolby Digital
Codec ID : A_AC3
Duration : 2 h 5 min
Bit rate mode : Constant
Bit rate : 640 kb/s
Channel(s) : 6 channels
Channel layout : L R C LFE Ls Rs
Sampling rate : 48.0 kHz
Frame rate : 31.250 FPS (1536 SPF)
Compression mode : Lossy
Stream size : 573 MiB (2%)
Title : Pinocchio.2019.ITALIAN.2160p.BluRay.x265.10bit.SDR.DTS-HD.MA.5.1-SWTYBLZ
Language : Italian
Service kind : Complete Main
Default : No
Forced : No

Text #1
ID : 4
Format : UTF-8
Codec ID : S_TEXT/UTF8
Codec ID/Info : UTF-8 Plain Text
Duration : 1 h 54 min
Bit rate : 49 b/s
Count of elements : 1298
Stream size : 41.7 KiB (0%)
Title : English-SRT
Language : English
Default : Yes
Forced : No

Text #2
ID : 5
ID in the original source medium : 4768 (0x12A0)
Format : PGS
Muxing mode : zlib
Codec ID : S_HDMV/PGS
Codec ID/Info : Picture based subtitle format used on BDs/HD-DVDs
Duration : 1 h 52 min
Bit rate : 34.4 kb/s
Count of elements : 3402
Stream size : 27.8 MiB (0%)
Title : German-PGS
Language : German
Default : No
Forced : No
Original source medium : Blu-ray

Menu
00:00:00.000 : en:Chapter 01
00:11:25.916 : en:Chapter 02
00:20:42.916 : en:Chapter 03
00:31:30.083 : en:Chapter 04
00:40:53.250 : en:Chapter 05
00:50:47.791 : en:Chapter 06
00:59:33.833 : en:Chapter 07
01:10:38.208 : en:Chapter 08
01:19:59.875 : en:Chapter 09
01:29:35.250 : en:Chapter 10
01:40:35.583 : en:Chapter 11
01:52:54.583 : en:Chapter 12





1 个附件 售价 大小 下载 时间

Pinocchio.2019.ITALIAN.2160p.BluRay.x265.10bit.SDR.DTS-HD.MA.5.1-SWTYBLZ.zip 0 金币 79.60K 399 次 5天前

#1楼
发帖时间:2020-10-18 20:27:33   |   回复数:0
游客组