travismk
一代宗师

[2019] [欧美] [恐怖] [WEB-1080P] 德州死飞之旅 Texas.Death.Trippin.2019.EXTENDED.1080p.AMZN.WEBRip.DDP2.0.x264-BobDobbs

-->

帖子完整标题:德州死飞之旅 Texas.Death.Trippin.2019.EXTENDED.1080p.AMZN.WEBRip.DDP2.0.x264-BobDobbs 4.99GB



◎译  名 德州死飞之旅
◎片  名 Texas Death Trippin'
◎年  代 2019
◎产  地 美国
◎类  别 恐怖
◎语  言 英语
◎上映日期 2019-12-01(美国)
◎IMDb评分 2.2/10 from 107 users
◎IMDb链接 https://www.imdb.com/title/tt10772304/
◎豆瓣评分 /10 from 0 users
◎豆瓣链接 https://movie.douban.com/subject/35032330/
◎片  长 62分钟

◎简  介

  A group of young adult stoners set out on a Roadtrip to a three day music festival.

Video
ID : 1
Format : AVC
Format/Info : Advanced Video Codec
Format profile : [email protected]
Format settings : CABAC / 4 Ref Frames
Format settings, CABAC : Yes
Format settings, Reference frames : 4 frames
Codec ID : V_MPEG4/ISO/AVC
Duration : 1 h 21 min
Bit rate : 8 589 kb/s
Width : 1 920 pixels
Height : 1 080 pixels
Display aspect ratio : 16:9
Frame rate mode : Constant
Frame rate : 23.976 (24000/1001/189150) FPS
Color space : YUV
Chroma subsampling : 4:2:0
Bit depth : 8 bits
Scan type : Progressive
Bits/(Pixel*Frame) : 0.173
Stream size : 4.86 GiB (97%)
Language : English
Default : Yes
Forced : No
Color range : Limited
Color primaries : BT.709
Transfer characteristics : BT.709
Matrix coefficients : BT.709

Audio
ID : 2
Format : E-AC-3
Format/Info : Enhanced AC-3
Commercial name : Dolby Digital Plus
Codec ID : A_EAC3
Duration : 1 h 21 min
Bit rate mode : Constant
Bit rate : 224 kb/s
Channel(s) : 2 channels
Channel layout : L R
Sampling rate : 48.0 kHz
Frame rate : 31.250 FPS (1536 SPF)
Compression mode : Lossy
Stream size : 130 MiB (3%)
Language : English
Service kind : Complete Main
Default : Yes
Forced : No

Text
ID : 3
Format : UTF-8
Codec ID : S_TEXT/UTF8
Codec ID/Info : UTF-8 Plain Text
Duration : 1 h 21 min
Bit rate : 35 b/s
Count of elements : 1024
Stream size : 21.1 KiB (0%)
Language : English
Default : Yes
Forced : No





1 个附件 售价 大小 下载 时间

Texas.Death.Trippin.2019.EXTENDED.1080p.AMZN.WEBRip.DDP2.0.x264-BobDobbs.zip 0 金币 50.63K 119 次 5天前

#1楼
发帖时间:2020-10-18 21:14:06   |   回复数:0
游客组